<?xml version="1.0" standalone="no"?>
<!DOCTYPE svg PUBLIC "-//W3C//DTD SVG 1.1//EN" "http://www.w3.org/Graphics/SVG/1.1/DTD/svg11.dtd" >
<svg xmlns="http://www.w3.org/2000/svg" xmlns:xlink="http://www.w3.org/1999/xlink" version="1.1">
<metadata>
Created by FontForge 20201107 at Thu Aug 11 23:50:43 2022
 By 
Copyright (c) 2017 by Deni Anggara. All rights reserved.
</metadata>
<defs>
<font id="MonaSans-Thin" horiz-adv-x="871" >
  <font-face 
    font-family="Mona Sans Thin"
    font-weight="200"
    font-stretch="normal"
    units-per-em="1000"
    panose-1="0 0 0 0 0 0 0 0 0 0"
    ascent="800"
    descent="-200"
    x-height="517"
    cap-height="729"
    bbox="-215 -221 1132 989"
    underline-thickness="50"
    underline-position="-125"
    unicode-range="U+000D-FB02"
  />
<missing-glyph horiz-adv-x="865" 
d="M432 738q80 0 149.5 -29.5t122 -82t82 -122t29.5 -148.5q0 -85 -33.5 -158.5t-92 -127t-134.5 -78.5q-12 -3 -19.5 2t-7.5 16v38v67q0 26 -8 44.5t-18 26.5q32 4 63.5 13t56.5 29.5t40 56t15 91.5q0 30 -10.5 56t-29.5 45q3 8 8 35t-12 67l-11 0.5t-33.5 -7t-59.5 -33.5
q-24 8 -48 11t-49 3q-24 0 -48 -3t-48 -11q-36 26 -59 33.5t-34 7l-11 -0.5q-16 -40 -11.5 -67t7.5 -35q-19 -19 -29.5 -45t-10.5 -56q0 -55 15 -90.5t40 -56t56.5 -30t63.5 -13.5q-8 -7 -15.5 -20.5t-10.5 -31.5q-10 -4 -30 -8t-41.5 3t-37.5 36l-7 9.5t-20.5 20
t-32.5 11.5l-7.5 -1t-9 -6t15.5 -17l14 -11t26 -45l5.5 -10t19.5 -21.5t39.5 -17t65.5 2.5v-43.5v-26.5q0 -11 -7 -16t-18 -2q-77 25 -136 78.5t-92.5 127t-33.5 158.5q0 79 29.5 148.5t82 122t122 82t148.5 29.5zM196 189v0q0 3 -5 3q-2 3 -4 2.5t-2 -2.5q-1 -2 3 -5
q7 -2 8 2zM209 171v0q2 1 0 8q-4 4 -9 1q-3 -3 2 -8l4 -2t3 1zM227 148v0q2 3 0 10q-6 6 -11 3q-1 -1 -1 -4.5t1 -5.5q2 -2 5.5 -3t5.5 0zM246 127v0q3 3 -2 10q-5 5 -10 2q-3 -4 3 -10q4 -7 9 -2zM274 115v0q0 6 -5 8q-8 3 -10 -3q0 -5 5 -8q8 -2 10 3zM305 114v0q0 4 -7 4
t-7 -4q0 -2 2 -5.5t5 -3.5q7 4 7 9zM334 118v0q0 2 -2.5 3.5t-5.5 0.5q-4 0 -6 -2.5t-1 -4.5q0 -4 8 -4q3 1 6 3t1 4z" />
    <glyph glyph-name="fl" unicode="fl" horiz-adv-x="538" 
d="M124 0v485h-108v32h108v110q0 52 29 77t75 25h73v-34h-70q-42 0 -56 -20.5t-14 -54.5v-103h255v212h37v-729h-37v485h-255v-485h-37z" />
    <glyph glyph-name="f_f.liga" unicode="ff" horiz-adv-x="576" 
d="M124 0v485h-108v32h108v110q0 52 29 77t75 25h73v-34h-70q-42 0 -56 -20.5t-14 -54.5v-103h240v110q0 52 29 77t75 25h73v-34h-70q-42 0 -56 -20.5t-14 -54.5v-103h127v-32h-127v-485h-37v485h-240v-485h-37z" />
    <glyph glyph-name="t_t.liga" unicode="tt" horiz-adv-x="594" 
d="M198 0q-28 0 -45.5 8t-25.5 25.5t-8 45.5v406h-107v32h107v164l36 9v-173h238v164l36 9v-173h131v-32h-131v-400q0 -31 10 -41t41 -10h80v-34h-88q-28 0 -45.5 8t-25.5 25.5t-8 45.5v406h-238v-400q0 -31 10 -41t41 -10h80v-34h-88z" />
    <glyph glyph-name=".notdef" horiz-adv-x="865" 
d="M432 738q80 0 149.5 -29.5t122 -82t82 -122t29.5 -148.5q0 -85 -33.5 -158.5t-92 -127t-134.5 -78.5q-12 -3 -19.5 2t-7.5 16v38v67q0 26 -8 44.5t-18 26.5q32 4 63.5 13t56.5 29.5t40 56t15 91.5q0 30 -10.5 56t-29.5 45q3 8 8 35t-12 67l-11 0.5t-33.5 -7t-59.5 -33.5
q-24 8 -48 11t-49 3q-24 0 -48 -3t-48 -11q-36 26 -59 33.5t-34 7l-11 -0.5q-16 -40 -11.5 -67t7.5 -35q-19 -19 -29.5 -45t-10.5 -56q0 -55 15 -90.5t40 -56t56.5 -30t63.5 -13.5q-8 -7 -15.5 -20.5t-10.5 -31.5q-10 -4 -30 -8t-41.5 3t-37.5 36l-7 9.5t-20.5 20
t-32.5 11.5l-7.5 -1t-9 -6t15.5 -17l14 -11t26 -45l5.5 -10t19.5 -21.5t39.5 -17t65.5 2.5v-43.5v-26.5q0 -11 -7 -16t-18 -2q-77 25 -136 78.5t-92.5 127t-33.5 158.5q0 79 29.5 148.5t82 122t122 82t148.5 29.5zM196 189v0q0 3 -5 3q-2 3 -4 2.5t-2 -2.5q-1 -2 3 -5
q7 -2 8 2zM209 171v0q2 1 0 8q-4 4 -9 1q-3 -3 2 -8l4 -2t3 1zM227 148v0q2 3 0 10q-6 6 -11 3q-1 -1 -1 -4.5t1 -5.5q2 -2 5.5 -3t5.5 0zM246 127v0q3 3 -2 10q-5 5 -10 2q-3 -4 3 -10q4 -7 9 -2zM274 115v0q0 6 -5 8q-8 3 -10 -3q0 -5 5 -8q8 -2 10 3zM305 114v0q0 4 -7 4
t-7 -4q0 -2 2 -5.5t5 -3.5q7 4 7 9zM334 118v0q0 2 -2.5 3.5t-5.5 0.5q-4 0 -6 -2.5t-1 -4.5q0 -4 8 -4q3 1 6 3t1 4z" />
    <glyph glyph-name=".null" horiz-adv-x="0" 
 />
    <glyph glyph-name="nonmarkingreturn" horiz-adv-x="333" 
 />
    <glyph glyph-name="CR" unicode="&#xd;" horiz-adv-x="255" 
 />
    <glyph glyph-name="space" unicode=" " horiz-adv-x="239" 
 />
    <glyph glyph-name="exclam" unicode="!" horiz-adv-x="225" 
d="M102 186l-9 307v236h39v-236l-10 -307h-20zM90 0v61h45v-61h-45z" />
    <glyph glyph-name="quotedbl" unicode="&#x22;" horiz-adv-x="324" 
d="M92 452h-20l-7 153v124h33v-124zM253 452h-20l-7 153v124h33v-124z" />
    <glyph glyph-name="numbersign" unicode="#" horiz-adv-x="639" 
d="M168 0v225h-133v28h133v247h-133v27h133v202h32v-202h245v202h32v-202h127v-27h-127v-247h127v-28h-127v-225h-32v225h-245v-225h-32zM200 253h245v247h-245v-247z" />
    <glyph glyph-name="dollar" unicode="$" horiz-adv-x="624" 
d="M316 -8q-90 0 -147 30t-84.5 83t-29.5 120h41q2 -61 25.5 -106t71.5 -69t121 -24q96 0 155.5 38.5t59.5 118.5q0 41 -11.5 69.5t-37 48.5t-66.5 34t-100 25q-60 12 -105 26t-75.5 34.5t-46 52t-15.5 77.5q0 56 28 98t80.5 65.5t126.5 23.5q78 0 130 -26t79.5 -72.5
t28.5 -109.5h-40q-2 56 -26.5 95t-68.5 59t-107 20q-60 0 -102.5 -18.5t-65 -51.5t-22.5 -78q0 -52 21.5 -80.5t69 -45.5t125.5 -32q50 -9 93 -22t76.5 -35.5t52 -59.5t18.5 -95t-29.5 -101.5t-86 -67.5t-137.5 -24zM296 -85v899h33v-899h-33z" />
    <glyph glyph-name="percent" unicode="%" horiz-adv-x="837" 
d="M167 0l461 729h42l-462 -729h-41zM184 320q-42 0 -73.5 23.5t-48.5 69t-17 110.5q0 66 17.5 111t49 68t72.5 23t72 -23t48 -68t17 -111t-17.5 -111t-48 -68.5t-71.5 -23.5zM184 352q32 0 54 19.5t34 57.5t12 94t-12 94t-34 57t-54 19t-55 -19.5t-35 -57t-12 -93.5
q0 -42 7 -74t20 -53.5t32 -32.5t43 -11zM655 -5q-42 0 -73.5 23t-48.5 68.5t-17 111.5t17 111t48.5 68t73.5 23q41 0 72 -23t48 -68.5t17 -111.5q0 -65 -17.5 -110.5t-48 -68.5t-71.5 -23zM655 27q31 0 53 19t34 57t12 94q0 57 -12 95t-34 57t-53 19q-32 0 -55 -19t-35 -57
t-12 -95q0 -56 12 -94t35 -57t55 -19z" />
    <glyph glyph-name="ampersand" unicode="&#x26;" horiz-adv-x="699" 
d="M272 -10q-55 0 -103 21t-77.5 63.5t-29.5 107.5q0 48 20.5 90.5t62 78.5t103.5 62v-11q-29 33 -50.5 61.5t-33.5 58t-12 64.5q0 44 19.5 78.5t56.5 54.5t87 20q44 0 78 -18.5t54 -51.5t20 -76q0 -46 -22 -83t-60.5 -63.5t-88.5 -43.5v-4l208 -234q14 27 22.5 64t13.5 76
t5 72h146v-28h-112q-2 -35 -9 -75.5t-18.5 -77.5t-28.5 -64l-3 16l132 -148h-45l-346 388q-52 -22 -88.5 -53.5t-55.5 -69.5t-19 -81q0 -54 23.5 -89.5t64 -53.5t90.5 -18q77 0 131 33t84 85l24 -24q-40 -65 -104 -96t-139 -31zM273 423h4q47 17 81.5 40.5t54 55.5t19.5 71
q0 50 -32.5 83.5t-86.5 33.5q-40 0 -68 -16.5t-42.5 -44t-14.5 -61.5q0 -32 11 -58t30.5 -50.5t43.5 -53.5z" />
    <glyph glyph-name="quotesingle" unicode="'" horiz-adv-x="163" 
d="M92 452h-20l-7 153v124h33v-124z" />
    <glyph glyph-name="parenleft" unicode="(" horiz-adv-x="308" 
d="M241 -167q-59 54 -100.5 130.5t-63 166.5t-21.5 183q0 70 12.5 138.5t36 131t58 116.5t78.5 94h37q-44 -40 -78.5 -93.5t-58 -116.5t-36 -131.5t-12.5 -138.5q0 -99 23.5 -190t65 -165.5t96.5 -124.5h-37z" />
    <glyph glyph-name="parenright" unicode=")" horiz-adv-x="308" 
d="M67 793q59 -54 100.5 -130.5t63 -166.5t21.5 -183q0 -70 -12.5 -138.5t-36 -131t-58 -116.5t-78.5 -94h-37q44 40 78.5 93.5t58 116.5t36 131.5t12.5 138.5q0 99 -23.5 190t-65 165.5t-96.5 124.5h37z" />
    <glyph glyph-name="asterisk" unicode="*" horiz-adv-x="324" 
d="M147 453v59l9 68l-55 -40l-51 -30l-15 25l51 30l60 27l-60 27l-50 28l14 25l51 -28l55 -39l-9 67v57h29v-57l-8 -67l56 39l51 28l13 -25l-50 -28l-59 -27l59 -27l51 -30l-14 -25l-51 30l-56 40l8 -68v-59h-29z" />
    <glyph glyph-name="plus" unicode="+" horiz-adv-x="548" 
d="M257 122v223h-222v32h222v223h34v-223h222v-32h-222v-223h-34z" />
    <glyph glyph-name="comma" unicode="," horiz-adv-x="170" 
d="M46 -146v27l7 1q18 2 24 17.5t6 37.5v63h-21v61h45v-129q0 -37 -12.5 -55.5t-39.5 -21.5z" />
    <glyph glyph-name="hyphen" unicode="-" horiz-adv-x="320" 
d="M30 242v33h260v-33h-260z" />
    <glyph glyph-name="period" unicode="." horiz-adv-x="171" 
d="M63 0v61h45v-61h-45z" />
    <glyph glyph-name="slash" unicode="/" horiz-adv-x="444" 
d="M30 -81l327 810h36l-324 -810h-39z" />
    <glyph glyph-name="zero" unicode="0" horiz-adv-x="569" 
d="M286 -10q-54 0 -99 23.5t-78 70t-50.5 115.5t-17.5 161q0 91 17.5 160t49.5 115.5t77 70t100 23.5q54 0 98 -23.5t76.5 -69.5t50 -115t17.5 -161q0 -91 -17.5 -160t-49.5 -116t-76 -70.5t-98 -23.5zM285 24q49 0 87 22.5t64 66t39.5 106t13.5 141.5t-13.5 141
t-39.5 105.5t-64 66t-87 22.5q-50 0 -88 -22.5t-64 -65.5t-39.5 -105t-13.5 -142q0 -79 13.5 -141.5t39.5 -106t64 -66t88 -22.5z" />
    <glyph glyph-name="one" unicode="1" horiz-adv-x="359" 
d="M204 0v579h-163v29h25q74 0 103 31t33 82h39v-721h-37z" />
    <glyph glyph-name="two" unicode="2" horiz-adv-x="546" 
d="M49 0v13q0 55 21.5 98t56.5 78t77 65.5t84 59.5t77 61t56.5 69.5t21.5 84.5q0 51 -22 88.5t-61.5 58t-92.5 20.5q-55 0 -97 -22.5t-65 -63t-21 -95.5h-34q-2 64 25 112.5t78 75.5t117 27q64 0 111.5 -25.5t73.5 -70.5t26 -102q0 -50 -21 -90t-55 -74t-75.5 -64t-83 -59.5
t-77 -61t-57.5 -68t-24 -81.5h404v-34h-443z" />
    <glyph glyph-name="three" unicode="3" horiz-adv-x="554" 
d="M268 -8q-68 0 -118.5 28.5t-77.5 80t-25 119.5h35q-2 -58 20.5 -101.5t65 -68t99.5 -24.5q58 0 100.5 21t66.5 59t24 90q0 41 -12.5 71.5t-36 50.5t-56 30t-72.5 10h-65v33h67q54 0 90 20.5t54.5 56t18.5 78.5q0 48 -22 81.5t-61 51t-92 17.5q-59 0 -100.5 -24t-62.5 -67
t-21 -101h-33q-2 68 24 119t76 79t117 28q50 0 89.5 -13t67.5 -37t43 -58t15 -75q0 -43 -15.5 -77.5t-44 -58t-66.5 -34.5v-4q44 -9 74.5 -33.5t47 -61t16.5 -83.5q0 -61 -29 -106.5t-80.5 -71t-120.5 -25.5z" />
    <glyph glyph-name="four" unicode="4" horiz-adv-x="608" 
d="M430 0v196h-377v34l352 491h62v-492h105v-33h-105v-196h-37zM97 229h333v466z" />
    <glyph glyph-name="five" unicode="5" horiz-adv-x="578" 
d="M282 -8q-68 0 -118.5 28.5t-78.5 80t-27 119.5h35q-2 -58 21 -101.5t66.5 -68t102.5 -24.5q95 0 146 57t51 150q0 67 -24 113t-67.5 70.5t-101.5 24.5q-64 0 -110.5 -28.5t-68.5 -74.5h-34l14 383h402v-33h-369l-14 -308l3 -1q26 43 74 69t109 26q51 0 93 -17t72.5 -49
t46.5 -75.5t16 -97.5q0 -73 -30 -127.5t-83.5 -85t-125.5 -30.5z" />
    <glyph glyph-name="six" unicode="6" horiz-adv-x="566" 
d="M288 -8q-62 0 -107 22t-73.5 64.5t-42.5 102t-14 134.5q0 109 15 187.5t45.5 129t77.5 74.5t111 24q62 0 107 -21.5t71.5 -61.5t30.5 -95h-34q-5 47 -28.5 79t-61 48.5t-85.5 16.5q-68 0 -109.5 -29t-63.5 -81t-30.5 -122t-10.5 -153h3q11 46 39.5 80.5t72 53.5t97.5 19
q66 0 115.5 -29t77.5 -82t28 -124q0 -73 -29.5 -126t-81.5 -82t-120 -29zM290 26q57 0 99 25.5t65.5 71.5t23.5 108t-23.5 107t-65 69t-97.5 24q-60 0 -103.5 -28t-66.5 -75t-23 -105q0 -61 24 -105.5t67 -68t100 -23.5z" />
    <glyph glyph-name="seven" unicode="7" horiz-adv-x="556" 
d="M208 0q0 114 20.5 209t55.5 176.5t80 155.5t94 147h-382v-164h-33v197h460v-25q-40 -58 -77.5 -117.5t-69.5 -122t-56.5 -132.5t-38 -150t-13.5 -174h-40z" />
    <glyph glyph-name="eight" unicode="8" horiz-adv-x="581" 
d="M291 -8q-55 0 -99.5 13.5t-77 39.5t-50 61.5t-17.5 78.5q0 42 18.5 80t56 64t93.5 32v2q-54 7 -88.5 33t-51 64t-16.5 81q0 58 29 100t81 65t122 23t122.5 -23.5t82 -66t29.5 -100.5q0 -42 -16.5 -80t-51 -64t-89.5 -32v-2q56 -4 93 -28.5t55 -62.5t18 -83
q0 -58 -30.5 -102t-85 -68.5t-127.5 -24.5zM291 26q62 0 107.5 20.5t70 58t24.5 86.5q0 44 -21.5 78t-66 54t-114.5 20q-71 0 -115.5 -21.5t-65 -56t-20.5 -74.5q0 -51 25.5 -88t70.5 -57t105 -20zM291 380q71 0 113.5 22t61.5 57.5t19 77.5q0 50 -24.5 85.5t-68 54.5
t-101.5 19q-59 0 -102.5 -19.5t-66.5 -55t-23 -84.5q0 -33 11 -61.5t34 -50t59.5 -33.5t87.5 -12z" />
    <glyph glyph-name="nine" unicode="9" horiz-adv-x="564" 
d="M274 -8q-59 0 -103.5 22t-71 61.5t-31.5 94.5h34q4 -44 26 -76.5t59.5 -50t87.5 -17.5q67 0 107 28t60.5 79.5t27.5 122t8 155.5h-3q-17 -67 -71.5 -109.5t-138.5 -42.5q-65 0 -114.5 29t-77.5 82t-28 123q0 73 29.5 126t82 82t119.5 29q62 0 107 -22.5t74 -64.5
t42.5 -102.5t13.5 -136.5q0 -119 -15 -198.5t-45.5 -126.5t-75 -67t-103.5 -20zM271 292q61 0 104.5 27.5t66.5 75t23 105.5q0 61 -24 104.5t-67 67.5t-101 24q-56 0 -98.5 -25.5t-66 -71.5t-23.5 -108t23.5 -106.5t65.5 -68.5t97 -24z" />
    <glyph glyph-name="colon" unicode=":" horiz-adv-x="171" 
d="M63 456v61h45v-61h-45zM63 0v61h45v-61h-45z" />
    <glyph glyph-name="semicolon" unicode=";" horiz-adv-x="170" 
d="M46 -146v27l7 1q18 2 24 17.5t6 37.5v63h-21v61h45v-129q0 -37 -12.5 -55.5t-39.5 -21.5zM62 456v61h45v-61h-45z" />
    <glyph glyph-name="less" unicode="&#x3c;" horiz-adv-x="686" 
d="M584 133l-481 206v44l481 206v-36l-448 -190v-4l448 -190v-36z" />
    <glyph glyph-name="equal" unicode="=" horiz-adv-x="668" 
d="M95 455v32h478v-32h-478zM95 235v32h478v-32h-478z" />
    <glyph glyph-name="greater" unicode="&#x3e;" horiz-adv-x="686" 
d="M103 133v36l448 190v4l-448 190v36l481 -206v-44z" />
    <glyph glyph-name="question" unicode="?" horiz-adv-x="522" 
d="M253 169v17q0 40 12.5 71.5t32.5 58.5t42.5 52.5t42.5 53t32.5 59.5t12.5 72q0 52 -20.5 85.5t-57 50t-85.5 16.5q-83 0 -128.5 -49.5t-44.5 -126.5h-37q0 63 26 110t74 73t112 26q48 0 85 -13t62.5 -37.5t39 -58.5t13.5 -76t-13 -75.5t-33 -62t-42.5 -54.5t-42.5 -52
t-33 -55t-13 -64v-21h-37zM250 0v61h45v-61h-45z" />
    <glyph glyph-name="at" unicode="@" horiz-adv-x="893" 
d="M456 -101q-91 0 -166 29.5t-129.5 84t-84.5 130.5t-30 169q0 96 29.5 174t85 134.5t131.5 87t169 30.5q85 0 155.5 -26.5t122 -75.5t80 -117.5t28.5 -151.5q0 -75 -21.5 -134t-61.5 -93.5t-94 -34.5q-33 0 -55.5 14t-33.5 40.5t-11 63.5h-3q-18 -61 -56.5 -89t-78.5 -28
q-37 0 -70 20t-53.5 61.5t-20.5 106.5t20 115t56 78.5t83 28.5q44 0 78 -27t46 -79h3l8 94h31l-17 -256q-2 -39 5.5 -64.5t24.5 -38t43 -12.5q42 0 74.5 29.5t51 82t18.5 120.5q0 102 -44.5 179.5t-124 121t-185.5 43.5q-86 0 -155.5 -28.5t-119.5 -81t-76.5 -125
t-26.5 -160.5q0 -81 24.5 -151.5t72 -123t117 -82t158.5 -29.5q71 0 130.5 18t99.5 50l12 -27q-30 -24 -71 -39.5t-85 -23t-83 -7.5zM435 136q40 0 69.5 24t47 66t19.5 97q-1 54 -16 91t-41 56t-61 19q-42 0 -71 -25t-44.5 -68.5t-15.5 -99.5q0 -54 14 -89.5t39.5 -53
t59.5 -17.5z" />
    <glyph glyph-name="A" unicode="A" horiz-adv-x="629" 
d="M7 0l283 729h50l283 -729h-40l-77 200h-382l-76 -200h-41zM137 233h356l-109 283l-66 174h-4l-67 -174z" />
    <glyph glyph-name="B" unicode="B" horiz-adv-x="690" 
d="M103 0v729h305q68 0 115.5 -23.5t73 -65t25.5 -97.5q0 -40 -13.5 -74t-41.5 -58t-72 -34v-3q49 -9 81 -34t48.5 -61t16.5 -79q0 -61 -28.5 -106t-81 -69.5t-124.5 -24.5h-304zM141 36h266q96 0 145 46.5t49 119.5q0 72 -46 113t-130 41h-284v-320zM141 391h282
q53 0 88.5 18.5t54 51.5t18.5 77q0 73 -48.5 114.5t-128.5 41.5h-266v-303z" />
    <glyph glyph-name="C" unicode="C" horiz-adv-x="756" 
d="M391 -8q-78 0 -141.5 27t-109 76.5t-70 117.5t-24.5 151t24.5 151.5t70.5 118t109 76t141 26.5q85 0 152 -29.5t110.5 -83.5t56.5 -129h-40q-11 61 -48 107t-95.5 72.5t-135.5 26.5q-94 0 -162.5 -42t-105 -117.5t-36.5 -176.5q0 -76 21 -137.5t60.5 -106t95.5 -68.5
t127 -24q77 0 136 26t96 73.5t47 110.5l40 -1q-10 -75 -53 -130t-111 -85t-155 -30z" />
    <glyph glyph-name="D" unicode="D" horiz-adv-x="740" 
d="M103 0v729h270q100 0 172 -45t110.5 -127t38.5 -193q0 -82 -22 -149.5t-63.5 -115t-101 -73.5t-134.5 -26h-270zM141 37h231q66 0 118.5 23t89 66.5t55.5 104t19 134.5q0 103 -34.5 176t-98 112.5t-149.5 39.5h-231v-656z" />
    <glyph glyph-name="E" unicode="E" horiz-adv-x="638" 
d="M103 0v729h481v-36h-454l11 11v-323l-11 11h406v-34h-406l11 11v-343l-11 11h454v-37h-481z" />
    <glyph glyph-name="F" unicode="F" horiz-adv-x="616" 
d="M103 0v729h479v-36h-452l11 11v-331l-11 11h412v-35h-412l11 11v-360h-38z" />
    <glyph glyph-name="G" unicode="G" horiz-adv-x="785" 
d="M396 -8q-79 0 -143.5 26.5t-111 76t-71 118t-24.5 151.5q0 84 25.5 152t72 117.5t111 76t142.5 26.5q85 0 153.5 -30t113 -84.5t55.5 -128.5h-39q-12 67 -52.5 112.5t-100 69.5t-130.5 24q-94 0 -164.5 -41.5t-109 -116.5t-38.5 -176q0 -76 22 -138t63 -106.5t98 -68.5
t128 -24q89 0 157 36t106 105t38 166v20l24 -25h-304v36h321v-26q0 -81 -24.5 -145.5t-69.5 -109.5t-108 -69t-140 -24z" />
    <glyph glyph-name="H" unicode="H" horiz-adv-x="788" 
d="M103 0v729h38v-352l-11 11h528l-11 -11v352h38v-729h-38v363l11 -11h-528l11 11v-363h-38z" />
    <glyph glyph-name="I" unicode="I" horiz-adv-x="244" 
d="M103 0v729h38v-729h-38z" />
    <glyph glyph-name="J" unicode="J" horiz-adv-x="380" 
d="M104 -8q-28 0 -51 6t-38 15v37q15 -10 37 -16.5t50 -6.5q43 0 73.5 14t47 45t16.5 81v562h38v-567q0 -44 -12 -76.5t-34 -53t-54 -30.5t-73 -10z" />
    <glyph glyph-name="K" unicode="K" horiz-adv-x="655" 
d="M103 0v729h38v-438l426 438h51l-297 -304l305 -425h-47l-284 398l-154 -158v-240h-38z" />
    <glyph glyph-name="L" unicode="L" horiz-adv-x="533" 
d="M103 0v729h38v-714l-18 22h400v-37h-420z" />
    <glyph glyph-name="M" unicode="M" horiz-adv-x="898" 
d="M103 0v729h62l282 -679h2l284 679h62v-729h-39v420l3 266h-7l-285 -686h-36l-286 686h-6l2 -266v-420h-38z" />
    <glyph glyph-name="N" unicode="N" horiz-adv-x="782" 
d="M103 0v729h55l482 -686h5l-4 260v426h38v-729h-55l-481 686h-5l3 -250v-436h-38z" />
    <glyph glyph-name="O" unicode="O" horiz-adv-x="792" 
d="M396 -8q-79 0 -143.5 26.5t-111 76t-71 118t-24.5 151.5q0 84 25 152.5t71 117.5t110.5 75.5t143.5 26.5q80 0 144 -26.5t110.5 -76t71 -117.5t24.5 -152t-25 -152.5t-71.5 -117.5t-110.5 -75.5t-143 -26.5zM396 28q96 0 165.5 42.5t107 118t37.5 175.5q0 76 -21.5 137.5
t-62 106t-97.5 68.5t-129 24q-96 0 -165 -42t-106.5 -117.5t-37.5 -176.5q0 -75 21.5 -137t61.5 -106.5t97 -68.5t129 -24z" />
    <glyph glyph-name="P" unicode="P" horiz-adv-x="646" 
d="M103 0v729h267q56 0 101.5 -14.5t77.5 -43t49 -69t17 -93.5q0 -67 -30.5 -116.5t-85.5 -76.5t-130 -27l-237 1v36l235 -1q67 0 113.5 22.5t70.5 64.5t24 97q0 57 -24.5 98t-70.5 63t-113 22h-240l14 12v-704h-38z" />
    <glyph glyph-name="Q" unicode="Q" horiz-adv-x="792" 
d="M640 -167l-244 159q-79 0 -143.5 26.5t-110.5 76t-71 118t-25 151.5q0 84 25 152.5t71 117.5t110.5 75.5t143.5 26.5q80 0 144 -26.5t110.5 -76t71 -117.5t24.5 -152q0 -102 -36 -180.5t-102 -127t-156 -61.5l195 -122v-40h-7zM396 28q96 0 165.5 42.5t107 118
t37.5 175.5q0 76 -21.5 137.5t-62 106t-97.5 68.5t-129 24q-96 0 -165 -42t-106.5 -117.5t-37.5 -176.5q0 -75 21.5 -137t61.5 -106.5t97 -68.5t129 -24z" />
    <glyph glyph-name="R" unicode="R" horiz-adv-x="699" 
d="M103 0v729h310q53 0 94.5 -12.5t69.5 -37t42.5 -59.5t14.5 -80q0 -67 -32.5 -113.5t-98.5 -65.5v-7q65 -10 90.5 -47t25.5 -100v-134q0 -17 1.5 -35t9.5 -38h-39q-7 17 -9 35t-2 42v123q0 46 -13 76t-47 45t-97 15h-282v-336h-38zM141 371h268q100 0 143 46t43 119
q0 55 -23 89.5t-65 51t-98 16.5h-268v-322z" />
    <glyph glyph-name="S" unicode="S" horiz-adv-x="644" 
d="M326 -8q-93 0 -152.5 30t-88 83t-30.5 120h41q2 -61 27 -106t74.5 -69t126.5 -24q101 0 163 38.5t62 118.5q0 42 -12.5 71t-40 48.5t-70 33t-102.5 24.5q-62 12 -109 26t-78.5 34.5t-47.5 52t-16 77.5q0 56 29 98t83.5 65.5t131.5 23.5q81 0 135 -26t82.5 -72.5
t29.5 -109.5h-40q-2 56 -27.5 95t-71.5 59t-112 20q-64 0 -108.5 -18.5t-68 -51.5t-23.5 -78q0 -51 22.5 -80t72.5 -46t130 -32q52 -9 97.5 -22t80 -35.5t54 -59.5t19.5 -95t-30.5 -101.5t-89.5 -67.5t-143 -24z" />
    <glyph glyph-name="T" unicode="T" horiz-adv-x="558" 
d="M260 0v693h-250v36h538v-36h-250v-693h-38z" />
    <glyph glyph-name="U" unicode="U" horiz-adv-x="753" 
d="M377 -8q-86 0 -149 31.5t-97 91.5t-34 145v469h38v-465q0 -79 29.5 -131.5t84 -78t128.5 -25.5q83 0 136.5 29t79.5 82t26 124v465h37v-469q0 -80 -32 -140.5t-94 -94t-153 -33.5z" />
    <glyph glyph-name="V" unicode="V" horiz-adv-x="634" 
d="M290 0l-283 729h42l227 -594l38 -100h6l38 100l229 594h40l-283 -729h-54z" />
    <glyph glyph-name="W" unicode="W" horiz-adv-x="906" 
d="M183 0l-172 729h41l107 -459l52 -227h5l209 686h56l209 -687h6l51 229l107 458h41l-172 -729h-57l-211 692h-5l-211 -692h-56z" />
    <glyph glyph-name="X" unicode="X" horiz-adv-x="602" 
d="M-3 0l278 396l-233 333h43l215 -307h3l215 307h43l-233 -332l278 -397h-46l-258 368h-2l-258 -368h-45z" />
    <glyph glyph-name="Y" unicode="Y" horiz-adv-x="591" 
d="M275 0v300l-270 429h44l244 -392h4l245 392h43l-272 -429v-300h-38z" />
    <glyph glyph-name="Z" unicode="Z" horiz-adv-x="640" 
d="M45 0v29l486 664h-471v36h523v-28l-486 -664h498v-37h-550z" />
    <glyph glyph-name="bracketleft" unicode="[" horiz-adv-x="316" 
d="M103 -167v960h203v-32h-167v-896h167v-32h-203z" />
    <glyph glyph-name="backslash" unicode="\" horiz-adv-x="444" 
d="M375 -81l-324 810h36l327 -810h-39z" />
    <glyph glyph-name="bracketright" unicode="]" horiz-adv-x="316" 
d="M213 793v-960h-203v32h167v896h-167v32h203z" />
    <glyph glyph-name="asciicircum" unicode="^" horiz-adv-x="374" 
d="M36 475l131 254h38l132 -254h-41l-110 216l-111 -216h-39z" />
    <glyph glyph-name="underscore" unicode="_" horiz-adv-x="330" 
d="M0 -33v33h330v-33h-330z" />
    <glyph glyph-name="grave" unicode="`" horiz-adv-x="187" 
d="M119 746l-79 136h42l65 -136h-28z" />
    <glyph glyph-name="a" unicode="a" horiz-adv-x="583" 
d="M262 -8q-48 0 -88 18.5t-69 53t-44.5 84t-15.5 111.5q0 83 27.5 143t76.5 92t113 32q49 0 88.5 -16t67 -44.5t40.5 -67.5h3l2 119h35v-517h-37v121h-3q-20 -58 -71 -93.5t-125 -35.5zM270 26q60 0 102.5 28.5t65 73.5t22.5 96v71q0 51 -22.5 96.5t-65 73.5t-102.5 28
q-56 0 -98 -27.5t-65.5 -79.5t-23.5 -127q0 -73 23.5 -125.5t65.5 -80t98 -27.5z" />
    <glyph glyph-name="b" unicode="b" horiz-adv-x="583" 
d="M320 -9q-48 0 -87.5 16t-66.5 45t-41 67h-3l-2 -119h-35v729h37v-331h3q20 57 71 92.5t124 35.5q49 0 89 -18.5t69 -53.5t44.5 -84.5t15.5 -111.5q0 -82 -27.5 -142t-76.5 -92.5t-114 -32.5zM313 25q56 0 98 27.5t65.5 79.5t23.5 126q0 56 -13.5 99.5t-38 73.5t-59 45.5
t-76.5 15.5q-60 0 -103 -28t-65.5 -73.5t-22.5 -96.5v-71q0 -51 22.5 -96t65.5 -73.5t103 -28.5z" />
    <glyph glyph-name="c" unicode="c" horiz-adv-x="546" 
d="M286 -8q-54 0 -98.5 19t-76.5 54t-49 83.5t-17 108.5q0 80 30 140t85 94t129 34q57 0 102.5 -21.5t74.5 -60t35 -89.5h-36q-8 44 -33 74t-62.5 46t-82.5 16q-63 0 -109 -29.5t-71 -82t-25 -121.5q0 -71 25.5 -122.5t71.5 -79.5t107 -28q50 0 89 18t63 51.5t29 77.5h37
q-6 -55 -35 -96t-76 -63.5t-107 -22.5z" />
    <glyph glyph-name="d" unicode="d" horiz-adv-x="583" 
d="M262 -8q-48 0 -88 18.5t-69 53t-44.5 84t-15.5 111.5q0 83 27.5 143t76.5 92t113 32q49 0 88.5 -16t67 -44.5t40.5 -67.5h3v331h37l-1 -729h-35l-1 121h-3q-20 -58 -71 -93.5t-125 -35.5zM270 26q60 0 102.5 28.5t65 73.5t22.5 96v71q0 38 -13 73.5t-37 63.5t-59.5 44.5
t-80.5 16.5q-56 0 -98 -27.5t-65.5 -79.5t-23.5 -127q0 -73 23.5 -125.5t65.5 -80t98 -27.5z" />
    <glyph glyph-name="e" unicode="e" horiz-adv-x="548" 
d="M282 -8q-72 0 -125 33t-82.5 93t-29.5 140t28 140t81 93.5t126 33.5q79 0 130.5 -35t74.5 -96t16 -138h-419q2 -73 27 -124.5t69.5 -78.5t103.5 -27q73 0 120 34.5t60 91.5h38q-8 -48 -38.5 -84t-77 -56t-102.5 -20zM83 284l-5 5h393l-5 -8q1 71 -22.5 117.5t-65.5 69.5
t-99 23t-100 -25t-67.5 -71t-28.5 -111z" />
    <glyph glyph-name="f" unicode="f" horiz-adv-x="299" 
d="M124 0v485h-108v32h108v110q0 52 29 77t75 25h73v-34h-70q-42 0 -56 -20.5t-14 -54.5v-103h127v-32h-127v-485h-37z" />
    <glyph glyph-name="g" unicode="g" horiz-adv-x="570" 
d="M270 -177q-52 0 -93 16t-67 46t-33 72h36q6 -31 27 -54t54 -35t76 -12q55 0 96 16t64.5 54t23.5 105v122h-4q-19 -56 -69.5 -90.5t-121.5 -34.5q-49 0 -88.5 17.5t-67.5 50.5t-43 79t-15 102q0 75 27 131t76 87t114 31q70 0 119.5 -33.5t68.5 -89.5h4v114h36v-492
q0 -54 -16 -92.5t-45.5 -62.5t-70 -35.5t-88.5 -11.5zM266 61q59 0 101 27.5t64.5 70t22.5 86.5v64q0 44 -21.5 86t-63 69.5t-101.5 27.5q-57 0 -98.5 -26.5t-64 -75t-22.5 -113.5q0 -67 23 -115.5t64 -74.5t96 -26z" />
    <glyph glyph-name="h" unicode="h" horiz-adv-x="586" 
d="M85 0v729h36v-329h4q26 62 78.5 93.5t114.5 31.5q41 0 75.5 -12.5t59.5 -39.5t39 -69.5t14 -103.5v-300h-37v294q0 68 -17 111.5t-51.5 64.5t-87.5 21q-57 0 -100.5 -28t-67.5 -76.5t-24 -112.5v-274h-36z" />
    <glyph glyph-name="i" unicode="i" horiz-adv-x="207" 
d="M85 0v517h37v-517h-37zM85 616v113h37v-113h-37z" />
    <glyph glyph-name="j" unicode="j" horiz-adv-x="201" 
d="M-31 -177v34h46q37 0 50.5 17.5t13.5 50.5v592h37v-597q0 -31 -10 -52.5t-31.5 -33t-54.5 -11.5h-51zM79 616v113h37v-113h-37z" />
    <glyph glyph-name="k" unicode="k" horiz-adv-x="523" 
d="M85 0v729h37v-509l49 49l254 248h49l-203 -197l215 -320h-43l-166 244l-32 50l-123 -119v-175h-37z" />
    <glyph glyph-name="l" unicode="l" horiz-adv-x="207" 
d="M85 0v729h37v-729h-37z" />
    <glyph glyph-name="m" unicode="m" horiz-adv-x="961" 
d="M85 0v517h34l2 -117h4q26 62 77.5 93.5t113.5 31.5q63 0 109 -31t65 -100h8q26 65 79 98t119 33q54 0 96 -22.5t65.5 -72t23.5 -130.5v-300h-36v294q0 68 -17 111.5t-51 64.5t-87 21q-56 0 -98.5 -28t-66 -76.5t-23.5 -112.5v-274h-38v294q0 68 -17 111.5t-50.5 64.5
t-85.5 21q-57 0 -99.5 -28t-66.5 -76.5t-24 -112.5v-274h-36z" />
    <glyph glyph-name="n" unicode="n" horiz-adv-x="586" 
d="M85 0v517h34l2 -117h4q26 62 78.5 93.5t114.5 31.5q41 0 75.5 -12.5t59.5 -39.5t39 -69.5t14 -103.5v-300h-37v294q0 68 -17 111.5t-51.5 64.5t-87.5 21q-57 0 -100.5 -28t-67.5 -76.5t-24 -112.5v-274h-36z" />
    <glyph glyph-name="o" unicode="o" horiz-adv-x="575" 
d="M289 -8q-55 0 -99.5 19t-77 54.5t-50 84t-17.5 107.5q0 79 30.5 139.5t85.5 94.5t128 34q54 0 98.5 -19t76 -54.5t49 -84.5t17.5 -109q0 -78 -30 -138t-84.5 -94t-126.5 -34zM288 28q61 0 107 28t71.5 80t25.5 122q0 52 -14 94.5t-40.5 73.5t-64 47.5t-84.5 16.5
q-61 0 -107.5 -28.5t-72.5 -80.5t-26 -124q0 -51 14 -93.5t41 -72.5t65 -46.5t85 -16.5z" />
    <glyph glyph-name="p" unicode="p" horiz-adv-x="584" 
d="M85 -167l1 684h35l1 -119h4q20 57 71 92.5t124 35.5q48 0 88 -18.5t69 -53.5t45 -84.5t16 -111.5q0 -82 -27.5 -142t-76.5 -92.5t-114 -32.5q-48 0 -87.5 16t-66.5 45t-41 67h-4v-286h-37zM314 25q56 0 98 27.5t65.5 79.5t23.5 126q0 75 -23.5 127t-65.5 79.5t-98 27.5
q-60 0 -103 -28t-65.5 -73.5t-22.5 -96.5v-71q0 -38 13 -73.5t37.5 -63.5t60 -44.5t80.5 -16.5z" />
    <glyph glyph-name="q" unicode="q" horiz-adv-x="583" 
d="M461 -167v288h-3q-20 -58 -71 -93.5t-125 -35.5q-48 0 -88 18.5t-69 53t-44.5 84t-15.5 111.5q0 83 27.5 143t76.5 92t113 32q49 0 88.5 -16t67 -44.5t40.5 -67.5h3l2 119h35v-684h-37zM270 26q60 0 102.5 28.5t65 73.5t22.5 96v71q0 51 -22.5 96.5t-65 73.5t-102.5 28
q-56 0 -98 -27.5t-65.5 -79.5t-23.5 -127q0 -73 23.5 -125.5t65.5 -80t98 -27.5z" />
    <glyph glyph-name="r" unicode="r" horiz-adv-x="341" 
d="M85 0v517h32l4 -104h2q17 50 62 80.5t101 30.5q9 0 17 -0.5t15 -1.5v-36q-7 1 -15 1.5t-16 0.5q-43 0 -79 -18t-59 -52t-28 -82v-336h-36z" />
    <glyph glyph-name="s" unicode="s" horiz-adv-x="480" 
d="M243 -10q-64 0 -109 21.5t-68.5 59.5t-23.5 89h37q0 -70 45.5 -103.5t119.5 -33.5t114 28.5t40 80.5q0 38 -16 60t-49.5 34t-87.5 20q-61 9 -103 24t-63.5 42t-21.5 73q0 43 23 74.5t64 49.5t96 18q60 0 101.5 -19.5t63 -55t21.5 -85.5h-36q-1 46 -20 73.5t-52 40.5
t-77 13q-70 0 -108.5 -29t-38.5 -76q0 -34 17 -55.5t52 -33t88 -19.5q41 -6 74.5 -15t58.5 -25t38.5 -41.5t13.5 -64.5q0 -70 -53 -107.5t-140 -37.5z" />
    <glyph glyph-name="t" unicode="t" horiz-adv-x="320" 
d="M198 0q-28 0 -45.5 8t-25.5 25.5t-8 45.5v406h-107v32h107v164l36 9v-173h131v-32h-131v-400q0 -31 10 -41t41 -10h80v-34h-88z" />
    <glyph glyph-name="u" unicode="u" horiz-adv-x="581" 
d="M269 -8q-56 0 -99 23t-66.5 70.5t-23.5 118.5v313h37v-306q0 -58 16.5 -99.5t52 -63.5t91.5 -22q54 0 96.5 27t66.5 77.5t24 118.5v268h37v-517h-34l-3 121h-4q-21 -59 -72.5 -94t-118.5 -35z" />
    <glyph glyph-name="v" unicode="v" horiz-adv-x="427" 
d="M194 0l-199 518h41l143 -384l35 -95h2l34 95l142 384h40l-196 -518h-42z" />
    <glyph glyph-name="w" unicode="w" horiz-adv-x="676" 
d="M154 0l-146 517h36l136 -480h2l133 480h45l139 -479h2l131 479h36l-145 -517h-48l-137 471h-3l-131 -471h-50z" />
    <glyph glyph-name="x" unicode="x" horiz-adv-x="466" 
d="M0 0l211 270l-188 247h43l167 -219h4l164 219h42l-185 -246l207 -271h-43l-186 244h-4l-191 -244h-41z" />
    <glyph glyph-name="y" unicode="y" horiz-adv-x="431" 
d="M23 -167v32h47q26 0 44 7.5t31 23t22 39.5l42 105v-17l-214 494h40l155 -372l30 -72h4l28 72l147 372h37l-238 -594q-12 -30 -28 -50t-39.5 -30t-58.5 -10h-49z" />
    <glyph glyph-name="z" unicode="z" horiz-adv-x="472" 
d="M25 0v29l367 456h-356v32h400v-30l-366 -455h377v-32h-422z" />
    <glyph glyph-name="braceleft" unicode="{" horiz-adv-x="347" 
d="M175 -167q-21 0 -31 12t-10 31v333q0 41 -20 63t-43 22h-31v37h31q23 0 43 22t20 64v333q0 19 10 31t31 12h162v-32h-167v-344q0 -46 -22 -73.5t-48 -28.5v-4q28 -1 49 -30t21 -73v-343h167v-32h-162z" />
    <glyph glyph-name="bar" unicode="|" horiz-adv-x="244" 
d="M104 -67v796h36v-796h-36z" />
    <glyph glyph-name="braceright" unicode="}" horiz-adv-x="347" 
d="M172 793q21 0 31 -12t10 -31v-333q0 -41 20 -63t43 -22h31v-37h-31q-23 0 -43 -22t-20 -64v-333q0 -19 -10 -31t-31 -12h-162v32h167v344q0 46 22 73.5t48 28.5v4q-28 1 -49 30t-21 73v343h-167v32h162z" />
    <glyph glyph-name="asciitilde" unicode="~" horiz-adv-x="511" 
d="M96 301q-3 44 9 66.5t30.5 30t34.5 7.5q20 0 40.5 -7t41.5 -16.5t41.5 -17t39.5 -7.5q26 0 40 16t13 48h30q2 -29 -4 -49.5t-18 -33t-28 -18t-34 -5.5q-21 0 -43.5 7.5t-44 17t-40.5 16.5t-35 7q-21 0 -33.5 -16.5t-9.5 -45.5h-30z" />
    <glyph glyph-name="uni00A0" unicode="&#xa0;" horiz-adv-x="239" 
 />
    <glyph glyph-name="exclamdown" unicode="&#xa1;" horiz-adv-x="225" 
d="M123 330l9 -307v-236h-39v236l10 307h20zM135 516v-61h-45v61h45z" />
    <glyph glyph-name="cent" unicode="&#xa2;" horiz-adv-x="551" 
d="M287 -8q-54 0 -98.5 19t-76.5 54t-49 83.5t-17 108.5q0 80 30 140t85 94t129 34q57 0 102.5 -21.5t74.5 -60t35 -89.5h-36q-8 44 -33 74t-62.5 46t-82.5 16q-63 0 -109 -29.5t-71 -82t-25 -121.5q0 -71 25.5 -122.5t71.5 -79.5t107 -28q50 0 89 18t63 51.5t29 77.5h37
q-6 -55 -35 -96t-76 -63.5t-107 -22.5zM261 -85v687h30v-687h-30z" />
    <glyph glyph-name="sterling" unicode="&#xa3;" horiz-adv-x="580" 
d="M22 0v36h87v309h-87v35h87v157q0 63 25.5 107.5t72 68t109.5 23.5q62 0 107.5 -23.5t70.5 -67.5t25 -107v-30h-36v26q0 55 -20.5 92t-58 56.5t-89.5 19.5q-83 0 -126.5 -45t-43.5 -122v-155h238v-35h-238v-309h355v142h36v-178h-514z" />
    <glyph glyph-name="currency" unicode="&#xa4;" horiz-adv-x="552" 
d="M50 97l-25 23l107 111q-19 22 -30.5 52.5t-11.5 64.5q0 35 12 66t31 54l-108 109l25 25l109 -111q22 17 51.5 27.5t65.5 10.5q33 0 63.5 -9.5t53.5 -28.5l109 111l25 -25l-109 -109q20 -23 31 -54t11 -66q0 -32 -11 -63t-32 -54l110 -111l-25 -23l-109 111
q-23 -19 -53.5 -30t-63.5 -11t-63.5 10.5t-54.5 29.5zM276 203q43 0 76.5 19t52.5 52t19 75q0 43 -19.5 76t-52.5 52t-76 19t-76.5 -19t-53 -52t-19.5 -76q0 -42 19 -75t53 -52t77 -19z" />
    <glyph glyph-name="yen" unicode="&#xa5;" horiz-adv-x="549" 
d="M257 0v159h-191v33h191v119h-191v33h171l-232 385h41l227 -383h3l226 383h41l-230 -385h168v-33h-188v-119h188v-33h-188v-159h-36z" />
    <glyph glyph-name="brokenbar" unicode="&#xa6;" horiz-adv-x="244" 
d="M104 417v312h36v-312h-36zM104 -67v312h36v-312h-36z" />
    <glyph glyph-name="dieresis" unicode="&#xa8;" horiz-adv-x="282" 
d="M40 770v112h38v-112h-38zM203 770v112h39v-112h-39z" />
    <glyph glyph-name="copyright" unicode="&#xa9;" horiz-adv-x="821" 
d="M35 363q0 112 47 196t131.5 130.5t196.5 46.5q113 0 197.5 -46.5t131.5 -130.5t47 -196q0 -111 -47 -195t-131.5 -131t-197.5 -47q-112 0 -196.5 47t-131.5 131t-47 195zM69 363q0 -102 43 -179t120 -120t178 -43q102 0 179 43t120 120t43 179t-43 179.5t-120 120.5
t-179 43q-101 0 -178 -43t-120 -120.5t-43 -179.5zM222 362q0 61 23.5 107t66.5 72t100 26q45 0 80.5 -16.5t58 -46.5t26.5 -69h-34q-10 51 -48 75.5t-85 24.5t-81.5 -22t-53 -61t-18.5 -90q0 -52 19 -90.5t53.5 -59t79.5 -20.5q53 0 91 28t44 80h35q-4 -41 -26 -73
t-59 -49.5t-85 -17.5q-56 0 -98 25.5t-65.5 71t-23.5 105.5z" />
    <glyph glyph-name="ordfeminine" unicode="&#xaa;" horiz-adv-x="384" 
d="M169 386q-42 0 -73.5 21t-49.5 59.5t-18 93.5t18 94t49.5 60t73.5 21q47 0 79.5 -22t45.5 -59h2l2 75h33v-338h-35v76h-2q-14 -39 -47.5 -60t-77.5 -21zM179 416q37 0 63 17.5t39.5 45.5t13.5 59v45q0 31 -13.5 59t-39.5 45.5t-63 17.5q-34 0 -60 -17t-40.5 -49
t-14.5 -79q0 -68 31.5 -106t83.5 -38z" />
    <glyph glyph-name="guillemotleft" unicode="&#xab;" horiz-adv-x="368" 
d="M160 0l-120 259l120 258h33l-117 -258l117 -259h-33zM305 0l-120 259l120 258h33l-117 -258l117 -259h-33z" />
    <glyph glyph-name="logicalnot" unicode="&#xac;" horiz-adv-x="665" 
d="M538 153v212h-443v32h475v-244h-32z" />
    <glyph glyph-name="registered" unicode="&#xae;" horiz-adv-x="595" 
d="M296 231q-72 0 -129 32.5t-90.5 90t-33.5 131.5t33.5 131t91 89.5t128.5 32.5q73 0 131 -32.5t92 -89.5t34 -131t-34 -131.5t-92 -90t-131 -32.5zM297 259q64 0 114.5 29t80.5 80t30 116q0 66 -30 117.5t-81 80.5t-114 29t-114 -29.5t-80.5 -80.5t-29.5 -117
q0 -65 30 -116t80.5 -80t113.5 -29zM205 360v251h114q26 0 45.5 -8.5t30 -24.5t10.5 -40q0 -25 -12.5 -42t-32.5 -23v-1q20 -5 30 -19t10 -37v-30q0 -3 0.5 -11t2.5 -15h-36q-3 5 -3.5 9.5t-0.5 20.5v28q0 17 -8 27.5t-32 10.5h-90v28h79q29 0 43.5 14t14.5 37t-15 35
t-43 12h-72v-222h-35z" />
    <glyph glyph-name="macron" unicode="&#xaf;" horiz-adv-x="403" 
d="M40 780v33h323v-33h-323z" />
    <glyph glyph-name="degree" unicode="&#xb0;" horiz-adv-x="391" 
d="M195 443q-42 0 -76.5 18.5t-55 52t-20.5 76.5q0 44 20.5 77t55 51.5t76.5 18.5q43 0 77.5 -18.5t55 -51.5t20.5 -77q0 -43 -20.5 -76.5t-55 -52t-77.5 -18.5zM195 478q50 0 83 31.5t33 80.5q0 50 -33 81t-83 31q-49 0 -82 -31t-33 -81q0 -49 33 -80.5t82 -31.5z" />
    <glyph glyph-name="plusminus" unicode="&#xb1;" horiz-adv-x="612" 
d="M289 162v203h-222v32h222v203h34v-203h222v-32h-222v-203h-34zM67 0v32h478v-32h-478z" />
    <glyph glyph-name="uni00B2" unicode="&#xb2;" horiz-adv-x="332" 
d="M28 326v9q0 40 17 69.5t43 52.5t56 43.5t56 41t43 44.5t17 55q0 42 -27 67t-71 25q-45 0 -73.5 -27t-27.5 -74h-32q-2 59 36.5 95.5t99.5 36.5q59 0 94.5 -34t35.5 -87q0 -34 -15.5 -61t-40.5 -49t-53.5 -41.5t-54.5 -39.5t-43 -43t-20 -52h233v-31h-273z" />
    <glyph glyph-name="uni00B3" unicode="&#xb3;" horiz-adv-x="339" 
d="M164 321q-43 0 -74 17t-47.5 48t-15.5 72h33q-1 -30 11 -54t36 -38t57 -14q48 0 77 25.5t29 68.5q0 31 -12.5 50.5t-34.5 29.5t-51 10h-41v28h41q45 0 68 25t23 61q0 41 -27 62.5t-70 21.5q-49 0 -76 -29.5t-27 -76.5h-32q-1 41 15.5 71.5t47.5 47.5t73 17q41 0 70.5 -14
t45.5 -38.5t16 -58.5q0 -40 -21 -66t-52 -35v-3q36 -7 58 -34t22 -71q0 -37 -18 -64.5t-49.5 -43t-74.5 -15.5z" />
    <glyph glyph-name="acute" unicode="&#xb4;" horiz-adv-x="187" 
d="M40 746l65 136h42l-79 -136h-28z" />
    <glyph glyph-name="paragraph" unicode="&#xb6;" horiz-adv-x="674" 
d="M191 -151v557q-87 -1 -134 44.5t-47 120.5q0 76 49 117t132 41h380v-36h-90v-844h-38v844h-214v-844h-38z" />
    <glyph glyph-name="periodcentered" unicode="&#xb7;" horiz-adv-x="271" 
d="M63 277q0 21 9.5 37t26 25t37.5 9q34 0 53 -20t19 -51q0 -20 -8.5 -36.5t-24.5 -25.5t-39 -9q-32 0 -52.5 20t-20.5 51z" />
    <glyph glyph-name="cedilla" unicode="&#xb8;" horiz-adv-x="231" 
d="M113 -209q-24 0 -41.5 7.5t-26.5 21.5t-10 33h30q2 -16 15 -26t32 -10q22 0 35.5 13t13.5 35t-12.5 34t-35.5 12h-31v92h30v-67q41 -1 60.5 -20t19.5 -51q0 -24 -10 -40.5t-27.5 -25t-41.5 -8.5z" />
    <glyph glyph-name="uni00B9" unicode="&#xb9;" horiz-adv-x="225" 
d="M123 326v337h-100v26h16q44 0 62.5 19.5t21.5 50.5h34v-433h-34z" />
    <glyph glyph-name="ordmasculine" unicode="&#xba;" horiz-adv-x="376" 
d="M189 386q-48 0 -84 21.5t-56.5 60.5t-20.5 91t20 91t56.5 61.5t84.5 22.5q71 0 115 -47.5t44 -126.5q0 -52 -20 -91t-55.5 -61t-83.5 -22zM189 417q37 0 65 17.5t43.5 49.5t15.5 76t-15 76t-43 49.5t-66 17.5q-37 0 -65.5 -17.5t-44 -49.5t-15.5 -77q0 -43 15 -75
t43.5 -49.5t66.5 -17.5z" />
    <glyph glyph-name="guillemotright" unicode="&#xbb;" horiz-adv-x="368" 
d="M208 517l120 -259l-120 -258h-33l117 258l-117 259h33zM63 517l120 -259l-120 -258h-33l117 258l-117 259h33z" />
    <glyph glyph-name="onequarter" unicode="&#xbc;" horiz-adv-x="555" 
d="M101 324v308h-92v25h14q41 0 58 17.5t20 46.5h32v-397h-32zM-16 0l496 721h38l-497 -721h-37zM455 0v104h-203v27l188 266h48v-265h56v-28h-56v-104h-33zM286 132h169v238z" />
    <glyph glyph-name="onehalf" unicode="&#xbd;" horiz-adv-x="620" 
d="M101 324v308h-92v25h14q41 0 58 17.5t20 46.5h32v-397h-32zM-16 0l496 721h38l-497 -721h-37zM338 0v8q0 36 15.5 63.5t39.5 48.5t51 39.5t51 37.5t39.5 41t15.5 51q0 38 -24 61t-65 23q-45 0 -69 -26.5t-23 -66.5h-30q-2 55 33.5 88.5t91.5 33.5q54 0 87 -31.5t33 -79.5
q0 -31 -14.5 -55.5t-37 -44.5t-48.5 -38.5t-49.5 -37t-39.5 -40t-19 -48.5q16 1 41 1.5t44 0.5h128v-29h-251z" />
    <glyph glyph-name="threequarters" unicode="&#xbe;" horiz-adv-x="676" 
d="M155 319q-58 0 -92.5 36.5t-33.5 89.5h31q-1 -43 26 -70t69 -27q43 0 70 24.5t27 61.5q0 26 -11 44t-31 28t-48 10h-38v27h38q41 0 62 22.5t21 55.5q0 35 -25 55.5t-63 20.5q-41 0 -67.5 -26t-26.5 -70h-30q-1 40 16 68t45.5 42.5t62.5 14.5q26 0 48.5 -7t39 -20.5
t25.5 -32t9 -42.5q0 -34 -17.5 -58.5t-49.5 -34.5v-2q38 -9 56 -35.5t18 -61.5q0 -33 -17 -58.5t-46.5 -40t-67.5 -14.5zM105 0l496 721h38l-497 -721h-37zM576 0v104h-203v27l188 266h48v-265h56v-28h-56v-104h-33zM407 132h169v238z" />
    <glyph glyph-name="questiondown" unicode="&#xbf;" horiz-adv-x="522" 
d="M269 348v-17q0 -40 -12.5 -71.5t-32.5 -58.5t-42.5 -52.5t-42.5 -53t-32.5 -59.5t-12.5 -72q0 -52 20.5 -85.5t57 -50t85.5 -16.5q83 0 128.5 49.5t44.5 126.5h37q0 -63 -26 -110t-74 -73t-112 -26q-48 0 -85 13t-62.5 37.5t-39 58.5t-13.5 76t13 75.5t33 62t42.5 54.5
t42.5 52t33 55t13 64v21h37zM272 517v-61h-45v61h45z" />
    <glyph glyph-name="Agrave" unicode="&#xc0;" horiz-adv-x="629" 
d="M7 0l283 729h50l283 -729h-40l-77 200h-382l-76 -200h-41zM137 233h356l-109 283l-66 174h-4l-67 -174zM303 803l-79 136h42l65 -136h-28z" />
    <glyph glyph-name="Aacute" unicode="&#xc1;" horiz-adv-x="629" 
d="M7 0l283 729h50l283 -729h-40l-77 200h-382l-76 -200h-41zM137 233h356l-109 283l-66 174h-4l-67 -174zM299 803l65 136h42l-79 -136h-28z" />
    <glyph glyph-name="Acircumflex" unicode="&#xc2;" horiz-adv-x="629" 
d="M7 0l283 729h50l283 -729h-40l-77 200h-382l-76 -200h-41zM137 233h356l-109 283l-66 174h-4l-67 -174zM191 803l110 136h28l111 -136h-42l-83 105l-83 -105h-41z" />
    <glyph glyph-name="Atilde" unicode="&#xc3;" horiz-adv-x="629" 
d="M7 0l283 729h50l283 -729h-40l-77 200h-382l-76 -200h-41zM137 233h356l-109 283l-66 174h-4l-67 -174zM371 833q-27 0 -47 7t-37.5 13.5t-37.5 6.5q-17 0 -29.5 -6t-24.5 -23l-18 12q12 18 23 29t24.5 16t30.5 5q19 0 39.5 -7t42 -14t41.5 -7q15 0 29.5 7t25.5 23
l19 -13q-16 -26 -35.5 -37.5t-45.5 -11.5z" />
    <glyph glyph-name="Adieresis" unicode="&#xc4;" horiz-adv-x="629" 
d="M7 0l283 729h50l283 -729h-40l-77 200h-382l-76 -200h-41zM137 233h356l-109 283l-66 174h-4l-67 -174zM214 827v112h38v-112h-38zM377 827v112h39v-112h-39z" />
    <glyph glyph-name="Aring" unicode="&#xc5;" horiz-adv-x="629" 
d="M7 0l283 729h50l283 -729h-40l-77 200h-382l-76 -200h-41zM137 233h356l-109 283l-66 174h-4l-67 -174zM318 811q-41 0 -67 24.5t-26 64.5q0 41 26 65t67 24t67 -24t26 -65q0 -40 -26 -64.5t-67 -24.5zM318 839q28 0 44.5 17t16.5 44t-16.5 43.5t-44.5 16.5t-44.5 -16.5
t-16.5 -43.5t16.5 -44t44.5 -17z" />
    <glyph glyph-name="AE" unicode="&#xc6;" horiz-adv-x="853" 
d="M7 0l283 729h509v-36h-443v-301h395v-34h-395v-321h443v-37h-480v200h-195l-76 -200h-41zM137 233h182v457h-5l-67 -174z" />
    <glyph glyph-name="Ccedilla" unicode="&#xc7;" horiz-adv-x="756" 
d="M391 -8q-78 0 -141.5 27t-109 76.5t-70 117.5t-24.5 151t24.5 151.5t70.5 118t109 76t141 26.5q85 0 152 -29.5t110.5 -83.5t56.5 -129h-40q-11 61 -48 107t-95.5 72.5t-135.5 26.5q-94 0 -162.5 -42t-105 -117.5t-36.5 -176.5q0 -76 21 -137.5t60.5 -106t95.5 -68.5
t127 -24q77 0 136 26t96 73.5t47 110.5l40 -1q-10 -75 -53 -130t-111 -85t-155 -30zM383 -209q-24 0 -41.5 7.5t-26.5 21.5t-10 33h30q2 -16 15 -26t32 -10q22 0 35.5 13t13.5 35t-12.5 34t-35.5 12h-31v92h30v-67q41 -1 60.5 -20t19.5 -51q0 -24 -10 -40.5t-27.5 -25
t-41.5 -8.5z" />
    <glyph glyph-name="Egrave" unicode="&#xc8;" horiz-adv-x="638" 
d="M103 0v729h481v-36h-454l11 11v-323l-11 11h406v-34h-406l11 11v-343l-11 11h454v-37h-481zM317 803l-79 136h42l65 -136h-28z" />
    <glyph glyph-name="Eacute" unicode="&#xc9;" horiz-adv-x="638" 
d="M103 0v729h481v-36h-454l11 11v-323l-11 11h406v-34h-406l11 11v-343l-11 11h454v-37h-481zM313 803l65 136h42l-79 -136h-28z" />
    <glyph glyph-name="Ecircumflex" unicode="&#xca;" horiz-adv-x="638" 
d="M103 0v729h481v-36h-454l11 11v-323l-11 11h406v-34h-406l11 11v-343l-11 11h454v-37h-481zM205 803l110 136h28l111 -136h-42l-83 105l-83 -105h-41z" />
    <glyph glyph-name="Edieresis" unicode="&#xcb;" horiz-adv-x="638" 
d="M103 0v729h481v-36h-454l11 11v-323l-11 11h406v-34h-406l11 11v-343l-11 11h454v-37h-481zM228 827v112h38v-112h-38zM391 827v112h39v-112h-39z" />
    <glyph glyph-name="Igrave" unicode="&#xcc;" horiz-adv-x="244" 
d="M103 0v729h38v-729h-38zM110 803l-79 136h42l65 -136h-28z" />
    <glyph glyph-name="Iacute" unicode="&#xcd;" horiz-adv-x="244" 
d="M103 0v729h38v-729h-38zM106 803l65 136h42l-79 -136h-28z" />
    <glyph glyph-name="Icircumflex" unicode="&#xce;" horiz-adv-x="244" 
d="M103 0v729h38v-729h-38zM-2 803l110 136h28l111 -136h-42l-83 105l-83 -105h-41z" />
    <glyph glyph-name="Idieresis" unicode="&#xcf;" horiz-adv-x="244" 
d="M103 0v729h38v-729h-38zM21 827v112h38v-112h-38zM184 827v112h39v-112h-39z" />
    <glyph glyph-name="Eth" unicode="&#xd0;" horiz-adv-x="741" 
d="M2 348v33h323v-33h-323zM103 0v729h270q100 0 172 -45t110.5 -127t38.5 -193q0 -82 -22 -149.5t-63.5 -115t-101 -73.5t-134.5 -26h-270zM141 37h231q66 0 118.5 23t89 66.5t55.5 104t19 134.5q0 103 -34.5 176t-98 112.5t-149.5 39.5h-231v-656z" />
    <glyph glyph-name="Ntilde" unicode="&#xd1;" horiz-adv-x="782" 
d="M103 0v729h55l482 -686h5l-4 260v426h38v-729h-55l-481 686h-5l3 -250v-436h-38zM447 833q-27 0 -47 7t-37.5 13.5t-37.5 6.5q-17 0 -29.5 -6t-24.5 -23l-18 12q12 18 23 29t24.5 16t30.5 5q19 0 39.5 -7t42 -14t41.5 -7q15 0 29.5 7t25.5 23l19 -13q-16 -26 -35.5 -37.5
t-45.5 -11.5z" />
    <glyph glyph-name="Ograve" unicode="&#xd2;" horiz-adv-x="792" 
d="M396 -8q-79 0 -143.5 26.5t-111 76t-71 118t-24.5 151.5q0 84 25 152.5t71 117.5t110.5 75.5t143.5 26.5q80 0 144 -26.5t110.5 -76t71 -117.5t24.5 -152t-25 -152.5t-71.5 -117.5t-110.5 -75.5t-143 -26.5zM396 28q96 0 165.5 42.5t107 118t37.5 175.5q0 76 -21.5 137.5
t-62 106t-97.5 68.5t-129 24q-96 0 -165 -42t-106.5 -117.5t-37.5 -176.5q0 -75 21.5 -137t61.5 -106.5t97 -68.5t129 -24zM384 803l-79 136h42l65 -136h-28z" />
    <glyph glyph-name="Oacute" unicode="&#xd3;" horiz-adv-x="792" 
d="M396 -8q-79 0 -143.5 26.5t-111 76t-71 118t-24.5 151.5q0 84 25 152.5t71 117.5t110.5 75.5t143.5 26.5q80 0 144 -26.5t110.5 -76t71 -117.5t24.5 -152t-25 -152.5t-71.5 -117.5t-110.5 -75.5t-143 -26.5zM396 28q96 0 165.5 42.5t107 118t37.5 175.5q0 76 -21.5 137.5
t-62 106t-97.5 68.5t-129 24q-96 0 -165 -42t-106.5 -117.5t-37.5 -176.5q0 -75 21.5 -137t61.5 -106.5t97 -68.5t129 -24zM380 803l65 136h42l-79 -136h-28z" />
    <glyph glyph-name="Ocircumflex" unicode="&#xd4;" horiz-adv-x="792" 
d="M396 -8q-79 0 -143.5 26.5t-111 76t-71 118t-24.5 151.5q0 84 25 152.5t71 117.5t110.5 75.5t143.5 26.5q80 0 144 -26.5t110.5 -76t71 -117.5t24.5 -152t-25 -152.5t-71.5 -117.5t-110.5 -75.5t-143 -26.5zM396 28q96 0 165.5 42.5t107 118t37.5 175.5q0 76 -21.5 137.5
t-62 106t-97.5 68.5t-129 24q-96 0 -165 -42t-106.5 -117.5t-37.5 -176.5q0 -75 21.5 -137t61.5 -106.5t97 -68.5t129 -24zM272 803l110 136h28l111 -136h-42l-83 105l-83 -105h-41z" />
    <glyph glyph-name="Otilde" unicode="&#xd5;" horiz-adv-x="792" 
d="M396 -8q-79 0 -143.5 26.5t-111 76t-71 118t-24.5 151.5q0 84 25 152.5t71 117.5t110.5 75.5t143.5 26.5q80 0 144 -26.5t110.5 -76t71 -117.5t24.5 -152t-25 -152.5t-71.5 -117.5t-110.5 -75.5t-143 -26.5zM396 28q96 0 165.5 42.5t107 118t37.5 175.5q0 76 -21.5 137.5
t-62 106t-97.5 68.5t-129 24q-96 0 -165 -42t-106.5 -117.5t-37.5 -176.5q0 -75 21.5 -137t61.5 -106.5t97 -68.5t129 -24zM452 833q-27 0 -47 7t-37.5 13.5t-37.5 6.5q-17 0 -29.5 -6t-24.5 -23l-18 12q12 18 23 29t24.5 16t30.5 5q19 0 39.5 -7t42 -14t41.5 -7
q15 0 29.5 7t25.5 23l19 -13q-16 -26 -35.5 -37.5t-45.5 -11.5z" />
    <glyph glyph-name="Odieresis" unicode="&#xd6;" horiz-adv-x="792" 
d="M396 -8q-79 0 -143.5 26.5t-111 76t-71 118t-24.5 151.5q0 84 25 152.5t71 117.5t110.5 75.5t143.5 26.5q80 0 144 -26.5t110.5 -76t71 -117.5t24.5 -152t-25 -152.5t-71.5 -117.5t-110.5 -75.5t-143 -26.5zM396 28q96 0 165.5 42.5t107 118t37.5 175.5q0 76 -21.5 137.5
t-62 106t-97.5 68.5t-129 24q-96 0 -165 -42t-106.5 -117.5t-37.5 -176.5q0 -75 21.5 -137t61.5 -106.5t97 -68.5t129 -24zM295 827v112h38v-112h-38zM458 827v112h39v-112h-39z" />
    <glyph glyph-name="multiply" unicode="&#xd7;" horiz-adv-x="582" 
d="M120 166l-24 24l171 171l-171 171l24 24l171 -171l171 171l24 -24l-171 -171l171 -171l-24 -24l-171 171z" />
    <glyph glyph-name="Oslash" unicode="&#xd8;" horiz-adv-x="792" 
d="M396 -8q-79 0 -143.5 26.5t-111 76t-71 118t-24.5 151.5q0 84 25 152.5t71 117.5t110.5 75.5t143.5 26.5q80 0 144 -26.5t110.5 -76t71 -117.5t24.5 -152t-25 -152.5t-71.5 -117.5t-110.5 -75.5t-143 -26.5zM396 28q96 0 165.5 42.5t107 118t37.5 175.5q0 76 -21.5 137.5
t-62 106t-97.5 68.5t-129 24q-96 0 -165 -42t-106.5 -117.5t-37.5 -176.5q0 -75 21.5 -137t61.5 -106.5t97 -68.5t129 -24zM78 -40l597 810h39l-594 -810h-42z" />
    <glyph glyph-name="Ugrave" unicode="&#xd9;" horiz-adv-x="753" 
d="M377 -8q-86 0 -149 31.5t-97 91.5t-34 145v469h38v-465q0 -79 29.5 -131.5t84 -78t128.5 -25.5q83 0 136.5 29t79.5 82t26 124v465h37v-469q0 -80 -32 -140.5t-94 -94t-153 -33.5zM365 803l-79 136h42l65 -136h-28z" />
    <glyph glyph-name="Uacute" unicode="&#xda;" horiz-adv-x="753" 
d="M377 -8q-86 0 -149 31.5t-97 91.5t-34 145v469h38v-465q0 -79 29.5 -131.5t84 -78t128.5 -25.5q83 0 136.5 29t79.5 82t26 124v465h37v-469q0 -80 -32 -140.5t-94 -94t-153 -33.5zM361 803l65 136h42l-79 -136h-28z" />
    <glyph glyph-name="Ucircumflex" unicode="&#xdb;" horiz-adv-x="753" 
d="M377 -8q-86 0 -149 31.5t-97 91.5t-34 145v469h38v-465q0 -79 29.5 -131.5t84 -78t128.5 -25.5q83 0 136.5 29t79.5 82t26 124v465h37v-469q0 -80 -32 -140.5t-94 -94t-153 -33.5zM253 803l110 136h28l111 -136h-42l-83 105l-83 -105h-41z" />
    <glyph glyph-name="Udieresis" unicode="&#xdc;" horiz-adv-x="753" 
d="M377 -8q-86 0 -149 31.5t-97 91.5t-34 145v469h38v-465q0 -79 29.5 -131.5t84 -78t128.5 -25.5q83 0 136.5 29t79.5 82t26 124v465h37v-469q0 -80 -32 -140.5t-94 -94t-153 -33.5zM276 827v112h38v-112h-38zM439 827v112h39v-112h-39z" />
    <glyph glyph-name="Yacute" unicode="&#xdd;" horiz-adv-x="591" 
d="M275 0v300l-270 429h44l244 -392h4l245 392h43l-272 -429v-300h-38zM279 803l65 136h42l-79 -136h-28z" />
    <glyph glyph-name="Thorn" unicode="&#xde;" horiz-adv-x="624" 
d="M123 146v36l222 -1q67 0 113.5 22.5t70.5 64.5t24 97q0 57 -24.5 98t-70.5 63t-113 22h-222v37h225q56 0 101.5 -14.5t77.5 -43t49 -69t17 -93.5q0 -67 -30.5 -116.5t-85.5 -76.5t-130 -27zM103 0v729h38v-729h-38z" />
    <glyph glyph-name="germandbls" unicode="&#xdf;" horiz-adv-x="623" 
d="M120 -167v688q0 54 16 95t44 68.5t66 41t83 13.5q63 0 108 -22.5t69 -62.5t24 -94q0 -35 -11.5 -66t-35.5 -54t-61 -36v-5q45 -5 80.5 -30t56 -65t20.5 -91q0 -65 -27.5 -113t-80 -74t-129.5 -26h-193v34h190q98 0 150.5 45t52.5 135q0 74 -45.5 119t-128.5 45h-77v33h46
q77 0 117.5 39t40.5 105q0 70 -44.5 109.5t-121.5 39.5q-83 0 -127.5 -49.5t-44.5 -138.5v-683h-37zM12 483v34h121v-34h-121z" />
    <glyph glyph-name="agrave" unicode="&#xe0;" horiz-adv-x="583" 
d="M262 -8q-48 0 -88 18.5t-69 53t-44.5 84t-15.5 111.5q0 83 27.5 143t76.5 92t113 32q49 0 88.5 -16t67 -44.5t40.5 -67.5h3l2 119h35v-517h-37v121h-3q-20 -58 -71 -93.5t-125 -35.5zM270 26q60 0 102.5 28.5t65 73.5t22.5 96v71q0 51 -22.5 96.5t-65 73.5t-102.5 28
q-56 0 -98 -27.5t-65.5 -79.5t-23.5 -127q0 -73 23.5 -125.5t65.5 -80t98 -27.5zM276 591l-79 136h42l65 -136h-28z" />
    <glyph glyph-name="aacute" unicode="&#xe1;" horiz-adv-x="583" 
d="M262 -8q-48 0 -88 18.5t-69 53t-44.5 84t-15.5 111.5q0 83 27.5 143t76.5 92t113 32q49 0 88.5 -16t67 -44.5t40.5 -67.5h3l2 119h35v-517h-37v121h-3q-20 -58 -71 -93.5t-125 -35.5zM270 26q60 0 102.5 28.5t65 73.5t22.5 96v71q0 51 -22.5 96.5t-65 73.5t-102.5 28
q-56 0 -98 -27.5t-65.5 -79.5t-23.5 -127q0 -73 23.5 -125.5t65.5 -80t98 -27.5zM272 591l65 136h42l-79 -136h-28z" />
    <glyph glyph-name="acircumflex" unicode="&#xe2;" horiz-adv-x="583" 
d="M262 -8q-48 0 -88 18.5t-69 53t-44.5 84t-15.5 111.5q0 83 27.5 143t76.5 92t113 32q49 0 88.5 -16t67 -44.5t40.5 -67.5h3l2 119h35v-517h-37v121h-3q-20 -58 -71 -93.5t-125 -35.5zM270 26q60 0 102.5 28.5t65 73.5t22.5 96v71q0 51 -22.5 96.5t-65 73.5t-102.5 28
q-56 0 -98 -27.5t-65.5 -79.5t-23.5 -127q0 -73 23.5 -125.5t65.5 -80t98 -27.5zM164 591l110 136h28l111 -136h-42l-83 105l-83 -105h-41z" />
    <glyph glyph-name="atilde" unicode="&#xe3;" horiz-adv-x="583" 
d="M262 -8q-48 0 -88 18.5t-69 53t-44.5 84t-15.5 111.5q0 83 27.5 143t76.5 92t113 32q49 0 88.5 -16t67 -44.5t40.5 -67.5h3l2 119h35v-517h-37v121h-3q-20 -58 -71 -93.5t-125 -35.5zM270 26q60 0 102.5 28.5t65 73.5t22.5 96v71q0 51 -22.5 96.5t-65 73.5t-102.5 28
q-56 0 -98 -27.5t-65.5 -79.5t-23.5 -127q0 -73 23.5 -125.5t65.5 -80t98 -27.5zM344 621q-27 0 -47 7t-37.5 13.5t-37.5 6.5q-17 0 -29.5 -6t-24.5 -23l-18 12q12 18 23 29t24.5 16t30.5 5q19 0 39.5 -7t42 -14t41.5 -7q15 0 29.5 7t25.5 23l19 -13q-16 -26 -35.5 -37.5
t-45.5 -11.5z" />
    <glyph glyph-name="adieresis" unicode="&#xe4;" horiz-adv-x="583" 
d="M262 -8q-48 0 -88 18.5t-69 53t-44.5 84t-15.5 111.5q0 83 27.5 143t76.5 92t113 32q49 0 88.5 -16t67 -44.5t40.5 -67.5h3l2 119h35v-517h-37v121h-3q-20 -58 -71 -93.5t-125 -35.5zM270 26q60 0 102.5 28.5t65 73.5t22.5 96v71q0 51 -22.5 96.5t-65 73.5t-102.5 28
q-56 0 -98 -27.5t-65.5 -79.5t-23.5 -127q0 -73 23.5 -125.5t65.5 -80t98 -27.5zM187 615v112h38v-112h-38zM350 615v112h39v-112h-39z" />
    <glyph glyph-name="aring" unicode="&#xe5;" horiz-adv-x="583" 
d="M262 -8q-48 0 -88 18.5t-69 53t-44.5 84t-15.5 111.5q0 83 27.5 143t76.5 92t113 32q49 0 88.5 -16t67 -44.5t40.5 -67.5h3l2 119h35v-517h-37v121h-3q-20 -58 -71 -93.5t-125 -35.5zM270 26q60 0 102.5 28.5t65 73.5t22.5 96v71q0 51 -22.5 96.5t-65 73.5t-102.5 28
q-56 0 -98 -27.5t-65.5 -79.5t-23.5 -127q0 -73 23.5 -125.5t65.5 -80t98 -27.5zM291 599q-41 0 -67 24.5t-26 64.5q0 41 26 65t67 24t67 -24t26 -65q0 -40 -26 -64.5t-67 -24.5zM291 627q28 0 44.5 17t16.5 44t-16.5 43.5t-44.5 16.5t-44.5 -16.5t-16.5 -43.5t16.5 -44
t44.5 -17z" />
    <glyph glyph-name="ae" unicode="&#xe6;" horiz-adv-x="964" 
d="M262 -8q-48 0 -88 18.5t-69 53t-44.5 84t-15.5 111.5q0 83 27.5 143t76.5 92t113 32q49 0 88.5 -16t67 -44.5t40.5 -67.5h3l2 119h35v-119h3q24 60 76 93.5t119 33.5q79 0 130.5 -36t74.5 -96.5t16 -136.5h-419q2 -72 27 -123t69.5 -78t103.5 -27q71 0 119 33.5t61 90.5
h38q-8 -48 -38.5 -84t-77 -56t-102.5 -20q-44 0 -82.5 14.5t-68 43t-46.5 71.5h-3v-121h-37v121h-3q-20 -58 -71 -93.5t-125 -35.5zM270 26q60 0 102.5 28.5t65 73.5t22.5 96v71q0 51 -22.5 96.5t-65 73.5t-102.5 28q-56 0 -98 -27.5t-65.5 -79.5t-23.5 -127
q0 -73 23.5 -125.5t65.5 -80t98 -27.5zM499 289h383q0 72 -25 116t-67.5 64t-94.5 20q-56 0 -98.5 -24t-67.5 -68.5t-30 -107.5z" />
    <glyph glyph-name="ccedilla" unicode="&#xe7;" horiz-adv-x="546" 
d="M286 -8q-54 0 -98.5 19t-76.5 54t-49 83.5t-17 108.5q0 80 30 140t85 94t129 34q57 0 102.5 -21.5t74.5 -60t35 -89.5h-36q-8 44 -33 74t-62.5 46t-82.5 16q-63 0 -109 -29.5t-71 -82t-25 -121.5q0 -71 25.5 -122.5t71.5 -79.5t107 -28q50 0 89 18t63 51.5t29 77.5h37
q-6 -55 -35 -96t-76 -63.5t-107 -22.5zM287 -209q-24 0 -41.5 7.5t-26.5 21.5t-10 33h30q2 -16 15 -26t32 -10q22 0 35.5 13t13.5 35t-12.5 34t-35.5 12h-31v92h30v-67q41 -1 60.5 -20t19.5 -51q0 -24 -10 -40.5t-27.5 -25t-41.5 -8.5z" />
    <glyph glyph-name="egrave" unicode="&#xe8;" horiz-adv-x="548" 
d="M282 -8q-72 0 -125 33t-82.5 93t-29.5 140t28 140t81 93.5t126 33.5q79 0 130.5 -35t74.5 -96t16 -138h-419q2 -73 27 -124.5t69.5 -78.5t103.5 -27q73 0 120 34.5t60 91.5h38q-8 -48 -38.5 -84t-77 -56t-102.5 -20zM83 284l-5 5h393l-5 -8q1 71 -22.5 117.5t-65.5 69.5
t-99 23t-100 -25t-67.5 -71t-28.5 -111zM262 591l-79 136h42l65 -136h-28z" />
    <glyph glyph-name="eacute" unicode="&#xe9;" horiz-adv-x="548" 
d="M282 -8q-72 0 -125 33t-82.5 93t-29.5 140t28 140t81 93.5t126 33.5q79 0 130.5 -35t74.5 -96t16 -138h-419q2 -73 27 -124.5t69.5 -78.5t103.5 -27q73 0 120 34.5t60 91.5h38q-8 -48 -38.5 -84t-77 -56t-102.5 -20zM83 284l-5 5h393l-5 -8q1 71 -22.5 117.5t-65.5 69.5
t-99 23t-100 -25t-67.5 -71t-28.5 -111zM258 591l65 136h42l-79 -136h-28z" />
    <glyph glyph-name="ecircumflex" unicode="&#xea;" horiz-adv-x="548" 
d="M282 -8q-72 0 -125 33t-82.5 93t-29.5 140t28 140t81 93.5t126 33.5q79 0 130.5 -35t74.5 -96t16 -138h-419q2 -73 27 -124.5t69.5 -78.5t103.5 -27q73 0 120 34.5t60 91.5h38q-8 -48 -38.5 -84t-77 -56t-102.5 -20zM83 284l-5 5h393l-5 -8q1 71 -22.5 117.5t-65.5 69.5
t-99 23t-100 -25t-67.5 -71t-28.5 -111zM150 591l110 136h28l111 -136h-42l-83 105l-83 -105h-41z" />
    <glyph glyph-name="edieresis" unicode="&#xeb;" horiz-adv-x="548" 
d="M282 -8q-72 0 -125 33t-82.5 93t-29.5 140t28 140t81 93.5t126 33.5q79 0 130.5 -35t74.5 -96t16 -138h-419q2 -73 27 -124.5t69.5 -78.5t103.5 -27q73 0 120 34.5t60 91.5h38q-8 -48 -38.5 -84t-77 -56t-102.5 -20zM83 284l-5 5h393l-5 -8q1 71 -22.5 117.5t-65.5 69.5
t-99 23t-100 -25t-67.5 -71t-28.5 -111zM173 615v112h38v-112h-38zM336 615v112h39v-112h-39z" />
    <glyph glyph-name="igrave" unicode="&#xec;" horiz-adv-x="207" 
d="M85 0v517h37v-517h-37zM92 591l-79 136h42l65 -136h-28z" />
    <glyph glyph-name="iacute" unicode="&#xed;" horiz-adv-x="207" 
d="M85 0v517h37v-517h-37zM88 591l65 136h42l-79 -136h-28z" />
    <glyph glyph-name="icircumflex" unicode="&#xee;" horiz-adv-x="207" 
d="M85 0v517h37v-517h-37zM-20 591l110 136h28l111 -136h-42l-83 105l-83 -105h-41z" />
    <glyph glyph-name="idieresis" unicode="&#xef;" horiz-adv-x="207" 
d="M85 0v517h37v-517h-37zM3 615v112h38v-112h-38zM166 615v112h39v-112h-39z" />
    <glyph glyph-name="ntilde" unicode="&#xf1;" horiz-adv-x="586" 
d="M85 0v517h34l2 -117h4q26 62 78.5 93.5t114.5 31.5q41 0 75.5 -12.5t59.5 -39.5t39 -69.5t14 -103.5v-300h-37v294q0 68 -17 111.5t-51.5 64.5t-87.5 21q-57 0 -100.5 -28t-67.5 -76.5t-24 -112.5v-274h-36zM352 621q-27 0 -47 7t-37.5 13.5t-37.5 6.5q-17 0 -29.5 -6
t-24.5 -23l-18 12q12 18 23 29t24.5 16t30.5 5q19 0 39.5 -7t42 -14t41.5 -7q15 0 29.5 7t25.5 23l19 -13q-16 -26 -35.5 -37.5t-45.5 -11.5z" />
    <glyph glyph-name="ograve" unicode="&#xf2;" horiz-adv-x="575" 
d="M289 -8q-55 0 -99.5 19t-77 54.5t-50 84t-17.5 107.5q0 79 30.5 139.5t85.5 94.5t128 34q54 0 98.5 -19t76 -54.5t49 -84.5t17.5 -109q0 -78 -30 -138t-84.5 -94t-126.5 -34zM288 28q61 0 107 28t71.5 80t25.5 122q0 52 -14 94.5t-40.5 73.5t-64 47.5t-84.5 16.5
q-61 0 -107.5 -28.5t-72.5 -80.5t-26 -124q0 -51 14 -93.5t41 -72.5t65 -46.5t85 -16.5zM275 591l-79 136h42l65 -136h-28z" />
    <glyph glyph-name="oacute" unicode="&#xf3;" horiz-adv-x="575" 
d="M289 -8q-55 0 -99.5 19t-77 54.5t-50 84t-17.5 107.5q0 79 30.5 139.5t85.5 94.5t128 34q54 0 98.5 -19t76 -54.5t49 -84.5t17.5 -109q0 -78 -30 -138t-84.5 -94t-126.5 -34zM288 28q61 0 107 28t71.5 80t25.5 122q0 52 -14 94.5t-40.5 73.5t-64 47.5t-84.5 16.5
q-61 0 -107.5 -28.5t-72.5 -80.5t-26 -124q0 -51 14 -93.5t41 -72.5t65 -46.5t85 -16.5zM271 591l65 136h42l-79 -136h-28z" />
    <glyph glyph-name="ocircumflex" unicode="&#xf4;" horiz-adv-x="575" 
d="M289 -8q-55 0 -99.5 19t-77 54.5t-50 84t-17.5 107.5q0 79 30.5 139.5t85.5 94.5t128 34q54 0 98.5 -19t76 -54.5t49 -84.5t17.5 -109q0 -78 -30 -138t-84.5 -94t-126.5 -34zM288 28q61 0 107 28t71.5 80t25.5 122q0 52 -14 94.5t-40.5 73.5t-64 47.5t-84.5 16.5
q-61 0 -107.5 -28.5t-72.5 -80.5t-26 -124q0 -51 14 -93.5t41 -72.5t65 -46.5t85 -16.5zM163 591l110 136h28l111 -136h-42l-83 105l-83 -105h-41z" />
    <glyph glyph-name="otilde" unicode="&#xf5;" horiz-adv-x="575" 
d="M289 -8q-55 0 -99.5 19t-77 54.5t-50 84t-17.5 107.5q0 79 30.5 139.5t85.5 94.5t128 34q54 0 98.5 -19t76 -54.5t49 -84.5t17.5 -109q0 -78 -30 -138t-84.5 -94t-126.5 -34zM288 28q61 0 107 28t71.5 80t25.5 122q0 52 -14 94.5t-40.5 73.5t-64 47.5t-84.5 16.5
q-61 0 -107.5 -28.5t-72.5 -80.5t-26 -124q0 -51 14 -93.5t41 -72.5t65 -46.5t85 -16.5zM343 621q-27 0 -47 7t-37.5 13.5t-37.5 6.5q-17 0 -29.5 -6t-24.5 -23l-18 12q12 18 23 29t24.5 16t30.5 5q19 0 39.5 -7t42 -14t41.5 -7q15 0 29.5 7t25.5 23l19 -13
q-16 -26 -35.5 -37.5t-45.5 -11.5z" />
    <glyph glyph-name="odieresis" unicode="&#xf6;" horiz-adv-x="575" 
d="M289 -8q-55 0 -99.5 19t-77 54.5t-50 84t-17.5 107.5q0 79 30.5 139.5t85.5 94.5t128 34q54 0 98.5 -19t76 -54.5t49 -84.5t17.5 -109q0 -78 -30 -138t-84.5 -94t-126.5 -34zM288 28q61 0 107 28t71.5 80t25.5 122q0 52 -14 94.5t-40.5 73.5t-64 47.5t-84.5 16.5
q-61 0 -107.5 -28.5t-72.5 -80.5t-26 -124q0 -51 14 -93.5t41 -72.5t65 -46.5t85 -16.5zM186 615v112h38v-112h-38zM349 615v112h39v-112h-39z" />
    <glyph glyph-name="divide" unicode="&#xf7;" horiz-adv-x="652" 
d="M87 345v32h478v-32h-478zM304 184v61h45v-61h-45zM304 477v61h45v-61h-45z" />
    <glyph glyph-name="oslash" unicode="&#xf8;" horiz-adv-x="575" 
d="M289 -8q-55 0 -99.5 19t-77 54.5t-50 84t-17.5 107.5q0 79 30.5 139.5t85.5 94.5t128 34q54 0 98.5 -19t76 -54.5t49 -84.5t17.5 -109q0 -78 -30 -138t-84.5 -94t-126.5 -34zM288 28q61 0 107 28t71.5 80t25.5 122q0 52 -14 94.5t-40.5 73.5t-64 47.5t-84.5 16.5
q-61 0 -107.5 -28.5t-72.5 -80.5t-26 -124q0 -51 14 -93.5t41 -72.5t65 -46.5t85 -16.5zM32 -60l469 637h40l-468 -637h-41z" />
    <glyph glyph-name="ugrave" unicode="&#xf9;" horiz-adv-x="581" 
d="M269 -8q-56 0 -99 23t-66.5 70.5t-23.5 118.5v313h37v-306q0 -58 16.5 -99.5t52 -63.5t91.5 -22q54 0 96.5 27t66.5 77.5t24 118.5v268h37v-517h-34l-3 121h-4q-21 -59 -72.5 -94t-118.5 -35zM279 591l-79 136h42l65 -136h-28z" />
    <glyph glyph-name="uacute" unicode="&#xfa;" horiz-adv-x="581" 
d="M269 -8q-56 0 -99 23t-66.5 70.5t-23.5 118.5v313h37v-306q0 -58 16.5 -99.5t52 -63.5t91.5 -22q54 0 96.5 27t66.5 77.5t24 118.5v268h37v-517h-34l-3 121h-4q-21 -59 -72.5 -94t-118.5 -35zM275 591l65 136h42l-79 -136h-28z" />
    <glyph glyph-name="ucircumflex" unicode="&#xfb;" horiz-adv-x="581" 
d="M269 -8q-56 0 -99 23t-66.5 70.5t-23.5 118.5v313h37v-306q0 -58 16.5 -99.5t52 -63.5t91.5 -22q54 0 96.5 27t66.5 77.5t24 118.5v268h37v-517h-34l-3 121h-4q-21 -59 -72.5 -94t-118.5 -35zM167 591l110 136h28l111 -136h-42l-83 105l-83 -105h-41z" />
    <glyph glyph-name="udieresis" unicode="&#xfc;" horiz-adv-x="581" 
d="M269 -8q-56 0 -99 23t-66.5 70.5t-23.5 118.5v313h37v-306q0 -58 16.5 -99.5t52 -63.5t91.5 -22q54 0 96.5 27t66.5 77.5t24 118.5v268h37v-517h-34l-3 121h-4q-21 -59 -72.5 -94t-118.5 -35zM190 615v112h38v-112h-38zM353 615v112h39v-112h-39z" />
    <glyph glyph-name="yacute" unicode="&#xfd;" horiz-adv-x="431" 
d="M23 -167v32h47q26 0 44 7.5t31 23t22 39.5l42 105v-17l-214 494h40l155 -372l30 -72h4l28 72l147 372h37l-238 -594q-12 -30 -28 -50t-39.5 -30t-58.5 -10h-49zM200 591l65 136h42l-79 -136h-28z" />
    <glyph glyph-name="thorn" unicode="&#xfe;" horiz-adv-x="583" 
d="M85 -167l1 896h36v-331h3q20 57 71 92.5t124 35.5q48 0 88 -18.5t69 -53.5t45 -84.5t16 -111.5q0 -82 -27.5 -142t-76.5 -92.5t-114 -32.5q-48 0 -87.5 16t-66.5 45t-41 67h-4v-286h-36zM313 25q56 0 98 27.5t65.5 79.5t23.5 126q0 75 -23.5 127t-65.5 79.5t-98 27.5
q-60 0 -103 -28t-65.5 -73.5t-22.5 -96.5v-71q0 -38 13 -73.5t37.5 -63.5t60 -44.5t80.5 -16.5z" />
    <glyph glyph-name="ydieresis" unicode="&#xff;" horiz-adv-x="431" 
d="M23 -167v32h47q26 0 44 7.5t31 23t22 39.5l42 105v-17l-214 494h40l155 -372l30 -72h4l28 72l147 372h37l-238 -594q-12 -30 -28 -50t-39.5 -30t-58.5 -10h-49zM115 615v112h38v-112h-38zM278 615v112h39v-112h-39z" />
    <glyph glyph-name="dotlessi" unicode="&#x131;" horiz-adv-x="207" 
d="M85 0v517h37v-517h-37z" />
    <glyph glyph-name="OE" unicode="&#x152;" horiz-adv-x="1138" 
d="M367 0q-100 0 -172 45t-110.5 127t-38.5 193q0 83 22 150t63.5 114.5t101 73.5t134.5 26h717v-36h-443v-301h395v-34h-395v-321h443v-37h-717zM368 36h235v656h-235q-66 0 -118.5 -23t-89 -66.5t-55.5 -104t-19 -134.5q0 -102 34.5 -175.5t98 -113t149.5 -39.5z" />
    <glyph glyph-name="oe" unicode="&#x153;" horiz-adv-x="996" 
d="M289 -8q-55 0 -99.5 19t-77 54.5t-50 84t-17.5 107.5q0 79 30.5 139.5t85.5 94.5t128 34q54 0 98.5 -19t76 -54.5t49 -84.5t17.5 -109q0 -78 -30 -138t-84.5 -94t-126.5 -34zM288 28q61 0 107 28t71.5 80t25.5 122q0 52 -14 94.5t-40.5 73.5t-64 47.5t-84.5 16.5
q-61 0 -107.5 -28.5t-72.5 -80.5t-26 -124q0 -51 14 -93.5t41 -72.5t65 -46.5t85 -16.5zM730 -8q-72 0 -125 33t-82.5 93t-29.5 140t28 140t81 93.5t126 33.5q79 0 130.5 -35t74.5 -96t16 -138h-419q2 -73 27 -124.5t69.5 -78.5t103.5 -27q73 0 120 34.5t60 91.5h38
q-8 -48 -38.5 -84t-77 -56t-102.5 -20zM531 284l-5 5h393l-5 -8q1 71 -22.5 117.5t-65.5 69.5t-99 23t-100 -25t-67.5 -71t-28.5 -111z" />
    <glyph glyph-name="Wcircumflex" unicode="&#x174;" horiz-adv-x="906" 
d="M183 0l-172 729h41l107 -459l52 -227h5l209 686h56l209 -687h6l51 229l107 458h41l-172 -729h-57l-211 692h-5l-211 -692h-56zM329 803l110 136h28l111 -136h-42l-83 105l-83 -105h-41z" />
    <glyph glyph-name="wcircumflex" unicode="&#x175;" horiz-adv-x="676" 
d="M154 0l-146 517h36l136 -480h2l133 480h45l139 -479h2l131 479h36l-145 -517h-48l-137 471h-3l-131 -471h-50zM214 591l110 136h28l111 -136h-42l-83 105l-83 -105h-41z" />
    <glyph glyph-name="Ycircumflex" unicode="&#x176;" horiz-adv-x="591" 
d="M275 0v300l-270 429h44l244 -392h4l245 392h43l-272 -429v-300h-38zM171 803l110 136h28l111 -136h-42l-83 105l-83 -105h-41z" />
    <glyph glyph-name="ycircumflex" unicode="&#x177;" horiz-adv-x="431" 
d="M23 -167v32h47q26 0 44 7.5t31 23t22 39.5l42 105v-17l-214 494h40l155 -372l30 -72h4l28 72l147 372h37l-238 -594q-12 -30 -28 -50t-39.5 -30t-58.5 -10h-49zM92 591l110 136h28l111 -136h-42l-83 105l-83 -105h-41z" />
    <glyph glyph-name="Ydieresis" unicode="&#x178;" horiz-adv-x="591" 
d="M275 0v300l-270 429h44l244 -392h4l245 392h43l-272 -429v-300h-38zM194 827v112h38v-112h-38zM357 827v112h39v-112h-39z" />
    <glyph glyph-name="circumflex" unicode="&#x2c6;" horiz-adv-x="329" 
d="M40 746l110 136h28l111 -136h-42l-83 105l-83 -105h-41z" />
    <glyph glyph-name="caron" unicode="&#x2c7;" horiz-adv-x="329" 
d="M150 746l-110 136h41l83 -106l83 106h42l-111 -136h-28z" />
    <glyph glyph-name="breve" unicode="&#x2d8;" horiz-adv-x="347" 
d="M174 742q-43 0 -73 15.5t-45 46t-16 73.5h38q0 -33 11 -56.5t32.5 -35.5t52.5 -12q47 0 72 27.5t24 76.5h37q0 -65 -34 -100t-99 -35z" />
    <glyph glyph-name="dotaccent" unicode="&#x2d9;" horiz-adv-x="117" 
d="M40 770v111h37v-111h-37z" />
    <glyph glyph-name="ring" unicode="&#x2da;" horiz-adv-x="266" 
d="M133 754q-41 0 -67 24.5t-26 64.5q0 41 26 65t67 24t67 -24t26 -65q0 -40 -26 -64.5t-67 -24.5zM133 782q28 0 44.5 17t16.5 44t-16.5 43.5t-44.5 16.5t-44.5 -16.5t-16.5 -43.5t16.5 -44t44.5 -17z" />
    <glyph glyph-name="ogonek" unicode="&#x2db;" horiz-adv-x="213" 
d="M118 -157q-38 0 -61 21t-23 57q0 35 20.5 59t43.5 31l25 -11q-25 -9 -40 -27.5t-15 -44.5q0 -25 16 -40t41 -15q14 0 27 3t21 7v-30q-8 -4 -23 -7t-32 -3z" />
    <glyph glyph-name="tilde" unicode="&#x2dc;" horiz-adv-x="355" 
d="M234 776q-27 0 -47 7t-37.5 13.5t-37.5 6.5q-17 0 -29.5 -6t-24.5 -23l-18 12q12 18 23 29t24.5 16t30.5 5q19 0 39.5 -7t42 -14t41.5 -7q15 0 29.5 7t25.5 23l19 -13q-16 -26 -35.5 -37.5t-45.5 -11.5z" />
    <glyph glyph-name="hungarumlaut" unicode="&#x2dd;" horiz-adv-x="317" 
d="M40 746l65 136h42l-79 -136h-28zM170 746l65 136h42l-79 -136h-28z" />
    <glyph glyph-name="gravecomb" unicode="&#x300;" horiz-adv-x="0" 
d="M119 746l-79 136h42l65 -136h-28z" />
    <glyph glyph-name="acutecomb" unicode="&#x301;" horiz-adv-x="0" 
d="M40 746l65 136h42l-79 -136h-28z" />
    <glyph glyph-name="uni0302" unicode="&#x302;" horiz-adv-x="0" 
d="M40 746l110 136h28l111 -136h-42l-83 105l-83 -105h-41z" />
    <glyph glyph-name="tildecomb" unicode="&#x303;" horiz-adv-x="0" 
d="M234 776q-27 0 -47 7t-37.5 13.5t-37.5 6.5q-17 0 -29.5 -6t-24.5 -23l-18 12q12 18 23 29t24.5 16t30.5 5q19 0 39.5 -7t42 -14t41.5 -7q15 0 29.5 7t25.5 23l19 -13q-16 -26 -35.5 -37.5t-45.5 -11.5z" />
    <glyph glyph-name="uni0307" unicode="&#x307;" horiz-adv-x="0" 
d="M40 770v111h37v-111h-37z" />
    <glyph glyph-name="uni0308" unicode="&#x308;" horiz-adv-x="0" 
d="M40 770v112h38v-112h-38zM203 770v112h39v-112h-39z" />
    <glyph glyph-name="uni030A" unicode="&#x30a;" horiz-adv-x="0" 
d="M133 754q-41 0 -67 24.5t-26 64.5q0 41 26 65t67 24t67 -24t26 -65q0 -40 -26 -64.5t-67 -24.5zM133 782q28 0 44.5 17t16.5 44t-16.5 43.5t-44.5 16.5t-44.5 -16.5t-16.5 -43.5t16.5 -44t44.5 -17z" />
    <glyph glyph-name="uni0327" unicode="&#x327;" horiz-adv-x="0" 
d="M113 -209q-24 0 -41.5 7.5t-26.5 21.5t-10 33h30q2 -16 15 -26t32 -10q22 0 35.5 13t13.5 35t-12.5 34t-35.5 12h-31v92h30v-67q41 -1 60.5 -20t19.5 -51q0 -24 -10 -40.5t-27.5 -25t-41.5 -8.5z" />
    <glyph glyph-name="uni0337" unicode="&#x337;" horiz-adv-x="0" 
d="M66 -60l469 637h40l-468 -637h-41z" />
    <glyph glyph-name="uni0338" unicode="&#x338;" horiz-adv-x="0" 
d="M50 -81l597 810h39l-594 -810h-42z" />
    <glyph glyph-name="uni03BC" unicode="&#x3bc;" horiz-adv-x="580" 
d="M80 -132v649h37v-334q0 -50 19.5 -85t56.5 -53.5t89 -18.5q95 0 138 61.5t43 161.5v268h37v-517h-34l-3 121h-4q-23 -66 -72.5 -97.5t-115.5 -31.5q-58 0 -101 24t-58 67l5 28v-243h-37z" />
    <glyph glyph-name="pi" unicode="&#x3c0;" horiz-adv-x="548" 
d="M487 -7q-30 0 -49 13t-27.5 36.5t-8.5 55.5v387h-260v-485h-37v485h-92v32h516v-32h-90v-367q0 -27 4 -47t15.5 -31t33.5 -11q13 0 21.5 2.5t14.5 6.5v-37q-4 -4 -15 -6t-26 -2z" />
    <glyph glyph-name="Wgrave" unicode="&#x1e80;" horiz-adv-x="906" 
d="M183 0l-172 729h41l107 -459l52 -227h5l209 686h56l209 -687h6l51 229l107 458h41l-172 -729h-57l-211 692h-5l-211 -692h-56zM441 803l-79 136h42l65 -136h-28z" />
    <glyph glyph-name="wgrave" unicode="&#x1e81;" horiz-adv-x="676" 
d="M154 0l-146 517h36l136 -480h2l133 480h45l139 -479h2l131 479h36l-145 -517h-48l-137 471h-3l-131 -471h-50zM326 591l-79 136h42l65 -136h-28z" />
    <glyph glyph-name="Wacute" unicode="&#x1e82;" horiz-adv-x="906" 
d="M183 0l-172 729h41l107 -459l52 -227h5l209 686h56l209 -687h6l51 229l107 458h41l-172 -729h-57l-211 692h-5l-211 -692h-56zM437 803l65 136h42l-79 -136h-28z" />
    <glyph glyph-name="wacute" unicode="&#x1e83;" horiz-adv-x="676" 
d="M154 0l-146 517h36l136 -480h2l133 480h45l139 -479h2l131 479h36l-145 -517h-48l-137 471h-3l-131 -471h-50zM322 591l65 136h42l-79 -136h-28z" />
    <glyph glyph-name="Wdieresis" unicode="&#x1e84;" horiz-adv-x="906" 
d="M183 0l-172 729h41l107 -459l52 -227h5l209 686h56l209 -687h6l51 229l107 458h41l-172 -729h-57l-211 692h-5l-211 -692h-56zM352 827v112h38v-112h-38zM515 827v112h39v-112h-39z" />
    <glyph glyph-name="wdieresis" unicode="&#x1e85;" horiz-adv-x="676" 
d="M154 0l-146 517h36l136 -480h2l133 480h45l139 -479h2l131 479h36l-145 -517h-48l-137 471h-3l-131 -471h-50zM237 615v112h38v-112h-38zM400 615v112h39v-112h-39z" />
    <glyph glyph-name="uni1E9E" unicode="&#x1e9e;" horiz-adv-x="637" 
d="M103 0v729h436v-51l-199 -251v-24l-15 17h25q81 0 134 -25.5t78.5 -72.5t25.5 -111q0 -65 -27.5 -112.5t-79.5 -73t-127 -25.5h-142v34h142q101 0 147 50.5t46 126.5q0 81 -46.5 128.5t-154.5 47.5h-59v30l219 276h-364v-693h-39z" />
    <glyph glyph-name="Ygrave" unicode="&#x1ef2;" horiz-adv-x="591" 
d="M275 0v300l-270 429h44l244 -392h4l245 392h43l-272 -429v-300h-38zM283 803l-79 136h42l65 -136h-28z" />
    <glyph glyph-name="ygrave" unicode="&#x1ef3;" horiz-adv-x="431" 
d="M23 -167v32h47q26 0 44 7.5t31 23t22 39.5l42 105v-17l-214 494h40l155 -372l30 -72h4l28 72l147 372h37l-238 -594q-12 -30 -28 -50t-39.5 -30t-58.5 -10h-49zM204 591l-79 136h42l65 -136h-28z" />
    <glyph glyph-name="endash" unicode="&#x2013;" horiz-adv-x="415" 
d="M30 242v33h355v-33h-355z" />
    <glyph glyph-name="emdash" unicode="&#x2014;" horiz-adv-x="575" 
d="M30 242v33h515v-33h-515z" />
    <glyph glyph-name="quoteleft" unicode="&#x2018;" horiz-adv-x="170" 
d="M124 729v-27l-7 -1q-18 -2 -24 -17.5t-6 -37.5v-63h21v-61h-45v129q0 37 12.5 55.5t39.5 21.5z" />
    <glyph glyph-name="quoteright" unicode="&#x2019;" horiz-adv-x="170" 
d="M46 522v27l7 1q18 2 24 17.5t6 37.5v63h-21v61h45v-129q0 -37 -12.5 -55.5t-39.5 -21.5z" />
    <glyph glyph-name="quotesinglbase" unicode="&#x201a;" horiz-adv-x="170" 
d="M46 -146v27l7 1q18 2 24 17.5t6 37.5v63h-21v61h45v-129q0 -37 -12.5 -55.5t-39.5 -21.5z" />
    <glyph glyph-name="quotedblleft" unicode="&#x201c;" horiz-adv-x="299" 
d="M253 729v-27l-7 -1q-18 -2 -24 -17.5t-6 -37.5v-63h21v-61h-45v129q0 37 12.5 55.5t39.5 21.5zM124 729v-27l-7 -1q-18 -2 -24 -17.5t-6 -37.5v-63h21v-61h-45v129q0 37 12.5 55.5t39.5 21.5z" />
    <glyph glyph-name="quotedblright" unicode="&#x201d;" horiz-adv-x="299" 
d="M46 522v27l7 1q18 2 24 17.5t6 37.5v63h-21v61h45v-129q0 -37 -12.5 -55.5t-39.5 -21.5zM175 522v27l7 1q18 2 24 17.5t6 37.5v63h-21v61h45v-129q0 -37 -12.5 -55.5t-39.5 -21.5z" />
    <glyph glyph-name="quotedblbase" unicode="&#x201e;" horiz-adv-x="299" 
d="M46 -146v27l7 1q18 2 24 17.5t6 37.5v63h-21v61h45v-129q0 -37 -12.5 -55.5t-39.5 -21.5zM175 -146v27l7 1q18 2 24 17.5t6 37.5v63h-21v61h45v-129q0 -37 -12.5 -55.5t-39.5 -21.5z" />
    <glyph glyph-name="bullet" unicode="&#x2022;" horiz-adv-x="336" 
d="M60 277q0 31 14 55t39 38t56 14q49 0 78.5 -30t29.5 -77q0 -30 -13.5 -54t-37.5 -38t-57 -14q-31 0 -56 14t-39 38t-14 54z" />
    <glyph glyph-name="ellipsis" unicode="&#x2026;" horiz-adv-x="513" 
d="M63 0v61h45v-61h-45zM234 0v61h45v-61h-45zM405 0v61h45v-61h-45z" />
    <glyph glyph-name="perthousand" unicode="&#x2030;" horiz-adv-x="1177" 
d="M167 0l461 729h42l-462 -729h-41zM184 320q-42 0 -73.5 23.5t-48.5 69t-17 110.5q0 66 17.5 111t49 68t72.5 23t72 -23t48 -68t17 -111t-17.5 -111t-48 -68.5t-71.5 -23.5zM184 352q32 0 54 19.5t34 57.5t12 94t-12 94t-34 57t-54 19t-55 -19.5t-35 -57t-12 -93.5
q0 -42 7 -74t20 -53.5t32 -32.5t43 -11zM655 -5q-42 0 -73.5 23t-48.5 68.5t-17 111.5t17 111t48.5 68t73.5 23q41 0 72 -23t48 -68.5t17 -111.5q0 -65 -17.5 -110.5t-48 -68.5t-71.5 -23zM655 27q31 0 53 19t34 57t12 94q0 57 -12 95t-34 57t-53 19q-32 0 -55 -19t-35 -57
t-12 -95q0 -56 12 -94t35 -57t55 -19zM995 -5q-42 0 -73.5 23t-48.5 68.5t-17 111.5t17 111t48.5 68t73.5 23q41 0 72 -23t48 -68.5t17 -111.5q0 -65 -17.5 -110.5t-48 -68.5t-71.5 -23zM995 27q31 0 53 19t34 57t12 94q0 57 -12 95t-34 57t-53 19q-32 0 -55 -19t-35 -57
t-12 -95q0 -56 12 -94t35 -57t55 -19z" />
    <glyph glyph-name="guilsinglleft" unicode="&#x2039;" horiz-adv-x="223" 
d="M160 0l-120 259l120 258h33l-117 -258l117 -259h-33z" />
    <glyph glyph-name="guilsinglright" unicode="&#x203a;" horiz-adv-x="223" 
d="M63 517l120 -259l-120 -258h-33l117 258l-117 259h33z" />
    <glyph glyph-name="fraction" unicode="&#x2044;" horiz-adv-x="104" 
d="M-215 0l496 721h38l-497 -721h-37z" />
    <glyph glyph-name="uni2070" unicode="&#x2070;" horiz-adv-x="346" 
d="M174 320q-45 0 -78.5 25.5t-52.5 75t-19 121.5q0 73 19 122t52.5 74t78.5 25q33 0 60 -14t47 -42t30.5 -69.5t10.5 -95.5q0 -72 -18.5 -121.5t-52 -75t-77.5 -25.5zM174 351q36 0 61.5 22t39 64.5t13.5 104.5t-13.5 104.5t-39 64.5t-61.5 22q-37 0 -62.5 -22t-39 -64.5
t-13.5 -104.5q0 -46 7.5 -81.5t22 -60t36 -37t49.5 -12.5z" />
    <glyph glyph-name="uni2074" unicode="&#x2074;" horiz-adv-x="370" 
d="M252 326v114h-222v29l206 290h50v-289h62v-30h-62v-114h-34zM68 470h184v259z" />
    <glyph glyph-name="uni2075" unicode="&#x2075;" horiz-adv-x="352" 
d="M173 321q-42 0 -73.5 17t-48.5 48t-17 72h33q0 -33 13 -56.5t37.5 -36.5t55.5 -13q53 0 81.5 31.5t28.5 82.5q0 55 -29.5 85.5t-78.5 30.5q-36 0 -62 -16t-38 -42h-32l9 235h247v-31h-216l-8 -167l2 -1q15 23 43 37.5t62 14.5q42 0 72.5 -18.5t47.5 -50.5t17 -75
q0 -44 -18 -77t-51 -51.5t-77 -18.5z" />
    <glyph glyph-name="uni2076" unicode="&#x2076;" horiz-adv-x="346" 
d="M176 321q-37 0 -65 13.5t-45.5 38.5t-26.5 62t-9 83q0 86 17 140t51 80t85 26q39 0 67 -13.5t44 -37.5t19 -58h-32q-4 37 -30.5 57.5t-67.5 20.5q-48 0 -73.5 -26t-35 -73.5t-10.5 -111.5h2q10 38 42 61t78 23q39 0 69 -17.5t47 -49t17 -74.5q0 -44 -18.5 -76.5
t-50.5 -50t-74 -17.5zM178 352q47 0 76 31t29 83t-28.5 82t-75.5 30q-33 0 -57.5 -15.5t-37.5 -41.5t-13 -59q0 -34 13.5 -58.5t37.5 -38t56 -13.5z" />
    <glyph glyph-name="uni2077" unicode="&#x2077;" horiz-adv-x="341" 
d="M124 326q0 89 20.5 159t53.5 129t70 114h-213v-94h-29v125h283v-24q-29 -43 -55.5 -86.5t-47.5 -91.5t-33 -105t-12 -126h-37z" />
    <glyph glyph-name="uni2078" unicode="&#x2078;" horiz-adv-x="354" 
d="M177 321q-44 0 -78 14.5t-52.5 41t-18.5 61.5q0 27 11.5 49.5t33.5 37.5t52 18v2q-49 7 -69.5 38.5t-20.5 65.5q0 35 18 60.5t50 39.5t74 14q44 0 76 -14.5t49.5 -40t17.5 -60.5q0 -34 -20 -65.5t-70 -37.5v-2q48 -4 72 -33.5t24 -70.5q0 -53 -41 -85.5t-108 -32.5z
M177 352q51 0 81.5 25t30.5 66q0 37 -27 61t-85 24t-84.5 -25.5t-26.5 -59.5q0 -28 14 -48.5t39 -31.5t58 -11zM177 559q59 0 83 26t24 61q0 28 -13.5 47.5t-37.5 30t-56 10.5q-49 0 -77.5 -23.5t-28.5 -64.5q0 -37 25.5 -62t80.5 -25z" />
    <glyph glyph-name="uni2079" unicode="&#x2079;" horiz-adv-x="346" 
d="M168 321q-55 0 -89.5 29.5t-39.5 79.5h33q3 -34 28 -56t68 -22q49 0 73 26.5t32.5 74.5t8.5 110h-2q-10 -37 -41.5 -60t-79.5 -23q-39 0 -69 17.5t-46.5 49.5t-16.5 74q0 66 40 104.5t102 38.5q38 0 65.5 -13.5t45.5 -39t27 -62.5t9 -84q0 -92 -17 -145.5t-50 -76
t-81 -22.5zM166 508q51 0 79.5 33.5t28.5 82.5q0 34 -13 58t-37 37.5t-57 13.5q-46 0 -75 -31t-29 -83t28.5 -81.5t74.5 -29.5z" />
    <glyph glyph-name="uni2080" unicode="&#x2080;" horiz-adv-x="346" 
d="M174 -36q-45 0 -78.5 25.5t-52.5 75t-19 121.5q0 73 19 122t52.5 74t78.5 25q33 0 60 -14t47 -42t30.5 -69.5t10.5 -95.5q0 -73 -18.5 -122t-52 -74.5t-77.5 -25.5zM174 -5q36 0 61.5 22t39 64.5t13.5 104.5t-13.5 104.5t-39 64.5t-61.5 22q-37 0 -62.5 -22t-39 -64.5
t-13.5 -104.5q0 -46 7.5 -81.5t22 -60t36 -37t49.5 -12.5z" />
    <glyph glyph-name="uni2081" unicode="&#x2081;" horiz-adv-x="225" 
d="M123 -30v337h-100v26h16q44 0 62.5 19.5t21.5 50.5h34v-433h-34z" />
    <glyph glyph-name="uni2082" unicode="&#x2082;" horiz-adv-x="332" 
d="M28 -30v9q0 40 17 69.5t43 52.5t56 43.5t56 41t43 44.5t17 55q0 42 -27 67t-71 25q-45 0 -73.5 -27t-27.5 -74h-32q-2 59 36.5 95.5t99.5 36.5q59 0 94.5 -34t35.5 -87q0 -34 -15.5 -61t-40.5 -49t-53.5 -41.5t-54.5 -39.5t-43 -43t-20 -52h233v-31h-273z" />
    <glyph glyph-name="uni2083" unicode="&#x2083;" horiz-adv-x="339" 
d="M164 -35q-43 0 -74 17t-47.5 48t-15.5 72h33q-1 -30 11 -54t36 -38t57 -14q48 0 77 25.5t29 68.5q0 31 -12.5 50.5t-34.5 29.5t-51 10h-41v28h41q45 0 68 25t23 61q0 41 -27 62.5t-70 21.5q-49 0 -76 -29.5t-27 -76.5h-32q-1 41 15.5 71.5t47.5 47.5t73 17q41 0 70.5 -14
t45.5 -38.5t16 -58.5q0 -40 -21 -66t-52 -35v-3q36 -7 58 -34t22 -71q0 -37 -18 -64.5t-49.5 -43t-74.5 -15.5z" />
    <glyph glyph-name="uni2084" unicode="&#x2084;" horiz-adv-x="370" 
d="M252 -30v114h-222v29l206 290h50v-289h62v-30h-62v-114h-34zM68 114h184v259z" />
    <glyph glyph-name="uni2085" unicode="&#x2085;" horiz-adv-x="352" 
d="M173 -35q-42 0 -73.5 17t-48.5 48t-17 72h33q0 -33 13 -56.5t37.5 -36.5t55.5 -13q53 0 81.5 31.5t28.5 82.5q0 55 -29.5 85.5t-78.5 30.5q-36 0 -62 -16t-38 -42h-32l9 235h247v-31h-216l-8 -167l2 -1q15 23 43 37.5t62 14.5q42 0 72.5 -18.5t47.5 -50.5t17 -75
q0 -44 -18 -77t-51 -51.5t-77 -18.5z" />
    <glyph glyph-name="uni2086" unicode="&#x2086;" horiz-adv-x="346" 
d="M176 -35q-37 0 -65 13.5t-45.5 38.5t-26.5 62t-9 83q0 86 17 140t51 80t85 26q39 0 67 -13.5t44 -37.5t19 -58h-32q-4 37 -30.5 57.5t-67.5 20.5q-48 0 -73.5 -26t-35 -73.5t-10.5 -111.5h2q10 38 42 61t78 23q39 0 69 -17.5t47 -49t17 -74.5q0 -44 -18.5 -76.5
t-50.5 -50t-74 -17.5zM178 -4q47 0 76 31t29 83t-28.5 82t-75.5 30q-33 0 -57.5 -15.5t-37.5 -41.5t-13 -59q0 -34 13.5 -58.5t37.5 -38t56 -13.5z" />
    <glyph glyph-name="uni2087" unicode="&#x2087;" horiz-adv-x="341" 
d="M124 -30q0 89 20.5 159t53.5 129t70 114h-213v-94h-29v125h283v-24q-29 -43 -55.5 -86.5t-47.5 -91.5t-33 -105t-12 -126h-37z" />
    <glyph glyph-name="uni2088" unicode="&#x2088;" horiz-adv-x="354" 
d="M177 -35q-44 0 -78 14.5t-52.5 41t-18.5 61.5q0 27 11.5 49.5t33.5 37.5t52 18v2q-49 7 -69.5 38.5t-20.5 65.5q0 35 18 60.5t50 39.5t74 14q44 0 76 -14.5t49.5 -40t17.5 -60.5q0 -34 -20 -65.5t-70 -37.5v-2q48 -4 72 -33.5t24 -70.5q0 -53 -41 -85.5t-108 -32.5z
M177 -4q51 0 81.5 25t30.5 66q0 37 -27 61t-85 24t-84.5 -25.5t-26.5 -59.5q0 -28 14 -48.5t39 -31.5t58 -11zM177 203q59 0 83 26t24 61q0 28 -13.5 47.5t-37.5 30t-56 10.5q-49 0 -77.5 -23.5t-28.5 -64.5q0 -37 25.5 -62t80.5 -25z" />
    <glyph glyph-name="uni2089" unicode="&#x2089;" horiz-adv-x="346" 
d="M168 -35q-55 0 -89.5 29.5t-39.5 79.5h33q3 -34 28 -56t68 -22q49 0 73 26.5t32.5 74.5t8.5 110h-2q-10 -37 -41.5 -60t-79.5 -23q-39 0 -69 17.5t-46.5 49.5t-16.5 74q0 66 40 104.5t102 38.5q38 0 65.5 -13.5t45.5 -39t27 -62.5t9 -84q0 -92 -17 -145.5t-50 -76
t-81 -22.5zM166 152q51 0 79.5 33.5t28.5 82.5q0 34 -13 58t-37 37.5t-57 13.5q-46 0 -75 -31t-29 -83t28.5 -81.5t74.5 -29.5z" />
    <glyph glyph-name="uni20AA" unicode="&#x20aa;" horiz-adv-x="782" 
d="M347 0q-22 0 -37 6.5t-22.5 21.5t-7.5 39v504h41v-534h319v692h39v-729h-332zM103 0v729h333q22 0 36.5 -6.5t22 -20.5t7.5 -39v-504h-41v533h-319v-692h-39z" />
    <glyph glyph-name="Euro" unicode="&#x20ac;" horiz-adv-x="828" 
d="M463 -8q-78 0 -141.5 27t-109 76.5t-70 117.5t-24.5 151t24.5 151.5t70.5 118t109 76t141 26.5q85 0 152 -29.5t110.5 -83.5t56.5 -129h-40q-11 61 -48 107t-95.5 72.5t-135.5 26.5q-94 0 -162.5 -42t-105 -117.5t-36.5 -176.5q0 -76 21 -137.5t60.5 -106t95.5 -68.5
t127 -24q77 0 136 26t96 73.5t47 110.5l40 -1q-10 -75 -53 -130t-111 -85t-155 -30zM46 250v31h412l-5 -31h-407zM46 448v31h441l-5 -31h-436z" />
    <glyph glyph-name="uni20B9" unicode="&#x20b9;" horiz-adv-x="647" 
d="M533 0q-4 3 -10.5 16.5t-8.5 28.5l-22 152q-7 53 -29.5 80t-54 36.5t-67.5 9.5h-238v36h240q94 0 141 39t52 109h-433v35h433q-6 53 -30.5 86.5t-63.5 49.5t-91 16h-248v35h546v-35h-173v-3q41 -15 69.5 -56.5t30.5 -93.5h73v-34h-72q-3 -43 -22.5 -77.5t-53 -57.5
t-77.5 -32v-6q45 -9 71.5 -42t33.5 -86l19 -138q4 -28 11 -41t14 -16v-11h-40z" />
    <glyph glyph-name="uni20BA" unicode="&#x20ba;" horiz-adv-x="576" 
d="M127 0v326l-102 -40v35l102 41v124l-102 -41v34l102 42v208h38v-194l234 95v-35l-234 -95v-124l234 95v-35l-234 -95v-305q106 0 177 34.5t112 98t53 148.5h37q-11 -79 -41.5 -138.5t-78.5 -99.5t-113 -59.5t-145 -19.5h-39z" />
    <glyph glyph-name="uni20BF" unicode="&#x20bf;" horiz-adv-x="670" 
d="M103 0v729h285q68 0 115.5 -23.5t73 -65t25.5 -97.5q0 -40 -13.5 -74t-41.5 -58t-72 -34v-3q49 -9 81 -34t48.5 -61t16.5 -79q0 -61 -28.5 -106t-81 -69.5t-124.5 -24.5h-284zM228 -85v107h32v-107h-32zM378 -85v107h32v-107h-32zM141 36h246q96 0 145 46.5t49 119.5
q0 72 -46 113t-130 41h-264v-320zM141 391h262q53 0 88.5 18.5t54 51.5t18.5 77q0 73 -48.5 114.5t-128.5 41.5h-246v-303zM228 714v100h32v-100h-32zM378 714v100h32v-100h-32z" />
    <glyph glyph-name="uni2117" unicode="&#x2117;" horiz-adv-x="821" 
d="M410 -10q-112 0 -196.5 47t-131.5 131t-47 195q0 112 47 196t131.5 130.5t196.5 46.5q113 0 197.5 -46.5t131.5 -130.5t47 -196q0 -111 -47 -195t-131.5 -131t-197.5 -47zM410 21q102 0 179 43t120 120t43 179t-43 179.5t-120 120.5t-179 43q-101 0 -178 -43t-120 -120.5
t-43 -179.5t43 -179t120 -120t178 -43zM298 165v397h151q62 0 98 -32t36 -89q0 -55 -36.5 -88.5t-98.5 -33.5h-125v28h121q50 0 77.5 25t27.5 68q0 44 -28 68t-77 24h-114v-367h-32z" />
    <glyph glyph-name="trademark" unicode="&#x2122;" horiz-adv-x="706" 
d="M312 419v310h44l124 -270h3l124 270h47v-310h-35v150l3 117h-3l-123 -267h-28l-123 267h-2l1 -117v-150h-32zM115 419v280h-110v30h257v-30h-114v-280h-33z" />
    <glyph glyph-name="oneeighth" unicode="&#x215b;" horiz-adv-x="638" 
d="M101 324v308h-92v25h14q41 0 58 17.5t20 46.5h32v-397h-32zM-16 0l496 721h38l-497 -721h-37zM471 -4q-41 0 -72 13t-48 37.5t-17 56.5q0 34 22.5 62.5t65.5 33.5v1q-40 6 -60.5 33t-20.5 63q0 32 16 55.5t45.5 36.5t68.5 13q40 0 69 -13t45.5 -37t16.5 -56
q0 -34 -19.5 -61.5t-62.5 -33.5v-1q44 -4 66 -31t22 -64q0 -49 -37.5 -78.5t-99.5 -29.5zM471 25q47 0 74.5 22.5t27.5 60.5q0 33 -24.5 55t-77.5 22t-77 -23.5t-24 -53.5q0 -26 12.5 -44.5t35.5 -28.5t53 -10zM471 214q53 0 75 23.5t22 55.5q0 38 -26.5 59t-70.5 21
t-70 -21.5t-26 -58.5q0 -34 23 -56.5t73 -22.5z" />
    <glyph glyph-name="threeeighths" unicode="&#x215c;" horiz-adv-x="759" 
d="M155 319q-58 0 -92.5 36.5t-33.5 89.5h31q-1 -43 26 -70t69 -27q43 0 70 24.5t27 61.5q0 26 -11 44t-31 28t-48 10h-38v27h38q41 0 62 22.5t21 55.5q0 35 -25 55.5t-63 20.5q-41 0 -67.5 -26t-26.5 -70h-30q-1 40 16 68t45.5 42.5t62.5 14.5q26 0 48.5 -7t39 -20.5
t25.5 -32t9 -42.5q0 -34 -17.5 -58.5t-49.5 -34.5v-2q38 -9 56 -35.5t18 -61.5q0 -33 -17 -58.5t-46.5 -40t-67.5 -14.5zM105 0l496 721h38l-497 -721h-37zM592 -4q-41 0 -72 13t-48 37.5t-17 56.5q0 34 22.5 62.5t65.5 33.5v1q-40 6 -60.5 33t-20.5 63q0 32 16 55.5
t45.5 36.5t68.5 13q40 0 69 -13t45.5 -37t16.5 -56q0 -34 -19.5 -61.5t-62.5 -33.5v-1q44 -4 66 -31t22 -64q0 -49 -37.5 -78.5t-99.5 -29.5zM592 25q47 0 74.5 22.5t27.5 60.5q0 33 -24.5 55t-77.5 22t-77 -23.5t-24 -53.5q0 -26 12.5 -44.5t35.5 -28.5t53 -10zM592 214
q53 0 75 23.5t22 55.5q0 38 -26.5 59t-70.5 21t-70 -21.5t-26 -58.5q0 -34 23 -56.5t73 -22.5z" />
    <glyph glyph-name="fiveeighths" unicode="&#x215d;" horiz-adv-x="769" 
d="M162 319q-58 0 -93 36.5t-34 89.5h32q-1 -43 26 -69.5t70 -26.5q44 0 72 29t28 75t-27 75.5t-71 29.5q-33 0 -56.5 -15t-34.5 -38h-30l8 216h226v-29h-197l-7 -152l2 -1q14 22 39 34.5t56 12.5q36 0 64.5 -17t45 -46.5t16.5 -68.5t-17.5 -69.5t-47.5 -48t-70 -17.5z
M115 0l496 721h38l-497 -721h-37zM602 -4q-41 0 -72 13t-48 37.5t-17 56.5q0 34 22.5 62.5t65.5 33.5v1q-40 6 -60.5 33t-20.5 63q0 32 16 55.5t45.5 36.5t68.5 13q40 0 69 -13t45.5 -37t16.5 -56q0 -34 -19.5 -61.5t-62.5 -33.5v-1q44 -4 66 -31t22 -64q0 -49 -37.5 -78.5
t-99.5 -29.5zM602 25q47 0 74.5 22.5t27.5 60.5q0 33 -24.5 55t-77.5 22t-77 -23.5t-24 -53.5q0 -26 12.5 -44.5t35.5 -28.5t53 -10zM602 214q53 0 75 23.5t22 55.5q0 38 -26.5 59t-70.5 21t-70 -21.5t-26 -58.5q0 -34 23 -56.5t73 -22.5z" />
    <glyph glyph-name="seveneighths" unicode="&#x215e;" horiz-adv-x="668" 
d="M99 324q0 83 18.5 147t48.5 117.5t64 103.5h-194v-86h-27v115h260v-23q-27 -39 -51 -78.5t-43 -83.5t-30 -96t-11 -116h-35zM14 0l496 721h38l-497 -721h-37zM501 -4q-41 0 -72 13t-48 37.5t-17 56.5q0 34 22.5 62.5t65.5 33.5v1q-40 6 -60.5 33t-20.5 63q0 32 16 55.5
t45.5 36.5t68.5 13q40 0 69 -13t45.5 -37t16.5 -56q0 -34 -19.5 -61.5t-62.5 -33.5v-1q44 -4 66 -31t22 -64q0 -49 -37.5 -78.5t-99.5 -29.5zM501 25q47 0 74.5 22.5t27.5 60.5q0 33 -24.5 55t-77.5 22t-77 -23.5t-24 -53.5q0 -26 12.5 -44.5t35.5 -28.5t53 -10zM501 214
q53 0 75 23.5t22 55.5q0 38 -26.5 59t-70.5 21t-70 -21.5t-26 -58.5q0 -34 23 -56.5t73 -22.5z" />
    <glyph glyph-name="arrowleft" unicode="&#x2190;" horiz-adv-x="746" 
d="M640 383v-36h-483l122 -165h-42l-136 183l136 183h42l-122 -165h483z" />
    <glyph glyph-name="arrowup" unicode="&#x2191;" horiz-adv-x="513" 
d="M239 95v483l-165 -122v42l183 136l183 -136v-42l-165 122v-483h-36z" />
    <glyph glyph-name="arrowright" unicode="&#x2192;" horiz-adv-x="746" 
d="M106 383h483l-122 165h42l136 -183l-136 -183h-42l122 165h-483v36z" />
    <glyph glyph-name="arrowdown" unicode="&#x2193;" horiz-adv-x="491" 
d="M238 634h36v-483l165 122v-42l-183 -136l-183 136v42l165 -122v483z" />
    <glyph glyph-name="arrowboth" unicode="&#x2194;" horiz-adv-x="829" 
d="M216 182l-136 183l136 183h42l-122 -165h557l-122 165h42l136 -183l-136 -183h-42l122 165h-557l122 -165h-42z" />
    <glyph glyph-name="emptyset" unicode="&#x2205;" horiz-adv-x="807" 
d="M404 -10q-76 0 -143 27.5t-117.5 77.5t-79.5 119t-29 152q0 82 29 150t79.5 118t117.5 77.5t143 27.5q75 0 142 -27.5t117.5 -77.5t79.5 -118t29 -150q0 -83 -29 -152t-79.5 -119t-117.5 -77.5t-142 -27.5zM404 19q68 0 128.5 26t107 72.5t73 110t26.5 138.5q0 45 -10 86
t-28 77l-580 -353q46 -72 120.5 -114.5t162.5 -42.5zM106 202l579 354q-45 71 -119.5 112.5t-161.5 41.5q-68 0 -129 -25.5t-107.5 -72t-73 -109t-26.5 -137.5q0 -45 10 -86.5t28 -77.5z" />
    <glyph glyph-name="product" unicode="&#x220f;" horiz-adv-x="768" 
d="M103 -151v880h562v-880h-38v844h-486v-844h-38z" />
    <glyph glyph-name="summation" unicode="&#x2211;" horiz-adv-x="683" 
d="M103 -151v40l283 399v3l-283 398v40h477v-34h-248h-184v-3l288 -403l-288 -403v-3h184h248v-34h-477z" />
    <glyph glyph-name="minus" unicode="&#x2212;" horiz-adv-x="668" 
d="M95 345v32h478v-32h-478z" />
    <glyph glyph-name="radical" unicode="&#x221a;" horiz-adv-x="579" 
d="M243 -151l-158 486h-75v34h105l146 -459h3l263 819h42l-287 -880h-39z" />
    <glyph glyph-name="infinity" unicode="&#x221e;" horiz-adv-x="878" 
d="M226 167q-56 0 -96.5 26t-62 71t-21.5 100q0 54 21.5 99t61.5 72.5t96 27.5q53 0 91.5 -24t68 -62.5t55.5 -82.5q26 44 56 82.5t68.5 62.5t91.5 24q56 0 95.5 -28t60 -73t20.5 -98q0 -51 -20.5 -96t-60 -73t-95.5 -28q-51 0 -89.5 22.5t-68.5 61.5t-58 86
q-26 -44 -56 -83t-68.5 -63t-89.5 -24zM225 202q55 0 98.5 39.5t94.5 123.5q-51 81 -93 121.5t-101 40.5q-42 0 -74 -21t-50 -58t-18 -84q0 -73 39.5 -117.5t103.5 -44.5zM655 202q43 0 75 21.5t50 58.5t18 82q0 47 -18 83.5t-50 58t-75 21.5q-39 0 -70.5 -18t-60.5 -54
t-63 -90q35 -54 64 -90.5t60 -54.5t70 -18z" />
    <glyph glyph-name="integral" unicode="&#x222b;" horiz-adv-x="355" 
d="M10 -151v35h148v790q0 25 12.5 40t35.5 15h139v-36h-149v-792q0 -20 -9 -36t-39 -16h-138z" />
    <glyph glyph-name="approxequal" unicode="&#x2248;" horiz-adv-x="640" 
d="M397 418q-22 0 -44 6.5t-43.5 15.5t-40.5 15.5t-35 6.5q-22 0 -34 -15.5t-9 -44.5h-30q-2 38 7.5 60t27 32t38.5 10q20 0 41 -7t42 -16.5t41.5 -17t39.5 -7.5q26 0 40 16.5t13 47.5h30q2 -25 -3 -44.5t-15.5 -32t-27 -19t-38.5 -6.5zM397 215q-21 0 -43.5 7.5t-44 17
t-40.5 16.5t-35 7q-14 0 -24.5 -7.5t-15.5 -21t-3 -33.5h-30q-3 44 9 66.5t30.5 30t34.5 7.5q20 0 40.5 -7t41.5 -16.5t41.5 -17t39.5 -7.5q26 0 40 16t13 48h30q2 -29 -4 -49.5t-18 -33t-28 -18t-34 -5.5z" />
    <glyph glyph-name="notequal" unicode="&#x2260;" horiz-adv-x="672" 
d="M182 98l71 137h-156v32h173l97 188h-270v32h287l71 137h36l-71 -137h155v-32h-171l-98 -188h269v-32h-285l-71 -137h-37z" />
    <glyph glyph-name="lessequal" unicode="&#x2264;" horiz-adv-x="686" 
d="M584 133l-481 206v44l481 206v-36l-448 -190v-4l448 -190v-36zM103 0v32h481v-32h-481z" />
    <glyph glyph-name="greaterequal" unicode="&#x2265;" horiz-adv-x="686" 
d="M103 133v36l448 190v4l-448 190v36l481 -206v-44zM103 0v32h481v-32h-481z" />
    <glyph glyph-name="uni2639" unicode="&#x2639;" horiz-adv-x="819" 
d="M410 -10q-81 0 -149.5 27t-119 76.5t-78.5 118.5t-28 154q0 84 28 152.5t78.5 118t119 76t149.5 26.5t149.5 -26.5t119 -76t78 -118t27.5 -152.5q0 -85 -27.5 -154t-78 -118.5t-119 -76.5t-149.5 -27zM169 156q24 74 87 117t152 43q91 0 153.5 -43t87.5 -117h-34
q-22 59 -77.5 94t-129.5 35q-72 0 -127.5 -35t-78.5 -94h-33zM410 19q99 0 176 43.5t121 121.5t44 182q0 103 -44 180.5t-121 120.5t-176 43t-176.5 -43t-121.5 -120.5t-44 -180.5q0 -104 44 -182t121.5 -121.5t176.5 -43.5zM320 392q-27 0 -40.5 19t-13.5 47
q0 34 15.5 50.5t38.5 16.5q28 0 41 -19t13 -48q0 -34 -15 -50t-39 -16zM499 392q-26 0 -40 19t-14 47q0 34 16 50.5t38 16.5q28 0 41.5 -19.5t13.5 -47.5q0 -34 -15 -50t-40 -16z" />
    <glyph glyph-name="smileface" unicode="&#x263a;" horiz-adv-x="819" 
d="M410 -10q-81 0 -149.5 27t-119 76.5t-78.5 118.5t-28 154q0 84 28 152.5t78.5 118t119 76t149.5 26.5t149.5 -26.5t119 -76t78 -118t27.5 -152.5q0 -85 -27.5 -154t-78 -118.5t-119 -76.5t-149.5 -27zM408 105q-68 0 -121.5 25.5t-86.5 72t-42 108.5h-35v15h109v-15h-41
q7 -52 36.5 -91.5t76.5 -61.5t104 -22q59 0 106 22t76.5 61.5t35.5 91.5h-39v15h109v-15h-36q-9 -62 -42.5 -108.5t-86.5 -72t-123 -25.5zM410 19q99 0 176 43.5t121 121.5t44 182q0 103 -44 180.5t-121 120.5t-176 43t-176.5 -43t-121.5 -120.5t-44 -180.5q0 -104 44 -182
t121.5 -121.5t176.5 -43.5zM320 392q-27 0 -40.5 19t-13.5 47q0 34 15.5 50.5t38.5 16.5q28 0 41 -19t13 -48q0 -34 -15 -50t-39 -16zM499 392q-26 0 -40 19t-14 47q0 34 16 50.5t38 16.5q28 0 41.5 -19.5t13.5 -47.5q0 -34 -15 -50t-40 -16z" />
    <glyph glyph-name="uni2713" unicode="&#x2713;" horiz-adv-x="924" 
d="M302 137l-186 252l26 23l164 -225l479 400l23 -27z" />
    <glyph glyph-name="uni2776" unicode="&#x2776;" 
d="M435 -10q-112 0 -196.5 47t-131.5 131t-47 195q0 112 47 196t131.5 130.5t196.5 46.5q113 0 197.5 -46.5t131.5 -130.5t47 -196q0 -84 -27 -152.5t-76.5 -118t-119 -76t-153.5 -26.5zM446 165h34v397h-34q-3 -29 -20 -46.5t-58 -17.5h-14v-26h92v-307z" />
    <glyph glyph-name="uni2777" unicode="&#x2777;" 
d="M435 -10q-112 0 -196.5 47t-131.5 131t-47 195q0 112 47 196t131.5 130.5t196.5 46.5q113 0 197.5 -46.5t131.5 -130.5t47 -196q0 -84 -27 -152.5t-76.5 -118t-119 -76t-153.5 -26.5zM312 162h250v31h-126q-25 0 -47.5 -0.5t-36.5 -2.5q3 27 19 48t39.5 39.5t48.5 36.5
t47.5 38t36.5 44.5t14 55.5q0 49 -32.5 80.5t-86.5 31.5q-56 0 -91.5 -33.5t-33.5 -88.5h31q-1 41 25 66t66 25q39 0 63 -22.5t24 -60.5q0 -28 -15 -50t-39 -40.5t-51 -37t-51 -40t-39 -48.5t-15 -64v-8z" />
    <glyph glyph-name="uni2778" unicode="&#x2778;" 
d="M435 -10q-112 0 -196.5 47t-131.5 131t-47 195q0 112 47 196t131.5 130.5t196.5 46.5q113 0 197.5 -46.5t131.5 -130.5t47 -196q0 -84 -27 -152.5t-76.5 -118t-119 -76t-153.5 -26.5zM435 160q56 0 93 32t37 82q0 36 -19 62t-54 34v2q27 8 47 31.5t20 61.5q0 48 -35.5 75
t-86.5 27q-55 0 -90 -33.5t-34 -91.5h32q0 44 25.5 69t65.5 25q38 0 62.5 -19.5t24.5 -54.5q0 -32 -20.5 -54.5t-61.5 -22.5h-38v-29h39q39 0 63.5 -21t24.5 -59q0 -37 -27 -61t-69 -24q-41 0 -67 27t-25 68h-33q-1 -52 32.5 -89t93.5 -37z" />
    <glyph glyph-name="uni2779" unicode="&#x2779;" 
d="M60 363q0 112 47 196t131.5 130.5t196.5 46.5q113 0 197.5 -46.5t131.5 -130.5t47 -196q0 -84 -27 -152.5t-76.5 -118t-119 -76t-153.5 -26.5q-112 0 -196.5 47t-131.5 131t-47 195zM280 269h201v-104h34v104h56v29h-56v264h-48l-187 -265v-28zM316 298l165 234v-234
h-165z" />
    <glyph glyph-name="uni277A" unicode="&#x277a;" 
d="M435 -10q-112 0 -196.5 47t-131.5 131t-47 195q0 112 47 196t131.5 130.5t196.5 46.5q113 0 197.5 -46.5t131.5 -130.5t47 -196q0 -84 -27 -152.5t-76.5 -118t-119 -76t-153.5 -26.5zM433 162q59 0 97 38t38 98q0 57 -36 94.5t-90 37.5q-31 0 -55.5 -13t-38.5 -34l-2 1
l7 150h196v30h-226l-8 -217h32q11 24 34 38.5t55 14.5q42 0 69 -29.5t27 -74.5q0 -46 -27.5 -74.5t-70.5 -28.5q-40 0 -67.5 25.5t-27.5 69.5h-33q-1 -54 34.5 -90t92.5 -36z" />
    <glyph glyph-name="uni277B" unicode="&#x277b;" 
d="M435 -10q-112 0 -196.5 47t-131.5 131t-47 195q0 112 47 196t131.5 130.5t196.5 46.5q113 0 197.5 -46.5t131.5 -130.5t47 -196q0 -84 -27 -152.5t-76.5 -118t-119 -76t-153.5 -26.5zM441 190q-42 0 -68.5 26.5t-26.5 72.5q0 44 25.5 74t70.5 30q41 0 66.5 -26.5
t25.5 -73.5q0 -46 -26 -74.5t-67 -28.5zM439 160q57 0 94 35.5t37 97.5q0 58 -34 93t-88 35q-40 0 -68.5 -20t-39.5 -55h-2q1 55 9.5 97.5t31.5 67t67 24.5q35 0 59 -18t28 -52h32q-4 49 -36.5 75t-82.5 26q-47 0 -78.5 -24t-47 -73.5t-15.5 -126.5q0 -58 14.5 -98.5
t44.5 -62t75 -21.5z" />
    <glyph glyph-name="uni277C" unicode="&#x277c;" 
d="M435 -10q-112 0 -196.5 47t-131.5 131t-47 195q0 112 47 196t131.5 130.5t196.5 46.5q113 0 197.5 -46.5t131.5 -130.5t47 -196q0 -84 -27 -152.5t-76.5 -118t-119 -76t-153.5 -26.5zM396 165h38q0 84 18.5 148t48.5 118t66 106v25h-260v-115h29v85h190q-33 -49 -63 -103
t-48.5 -118t-18.5 -146z" />
    <glyph glyph-name="uni277D" unicode="&#x277d;" 
d="M60 363q0 112 47 196t131.5 130.5t196.5 46.5q113 0 197.5 -46.5t131.5 -130.5t47 -196q0 -84 -27 -152.5t-76.5 -118t-119 -76t-153.5 -26.5q-112 0 -196.5 47t-131.5 131t-47 195zM300 269q0 -49 38 -78.5t99 -29.5t98.5 29.5t37.5 78.5q0 35 -21 63t-65 32v1
q44 6 62.5 35.5t18.5 60.5q0 32 -16.5 55.5t-45.5 36.5t-69 13q-39 0 -68.5 -13t-45.5 -36.5t-16 -54.5q0 -34 19.5 -62t60.5 -35v-1q-43 -5 -65 -33.5t-22 -61.5zM339 272q0 31 23.5 53.5t74.5 22.5q50 0 74.5 -21.5t24.5 -54.5q0 -37 -27 -59.5t-72 -22.5q-44 0 -71 22
t-27 60zM343 457q0 36 25.5 57.5t68.5 21.5q42 0 68.5 -21t26.5 -58q0 -32 -22 -55.5t-73 -23.5q-49 0 -71.5 23t-22.5 56z" />
    <glyph glyph-name="uni277E" unicode="&#x277e;" 
d="M435 -10q-112 0 -196.5 47t-131.5 131t-47 195q0 112 47 196t131.5 130.5t196.5 46.5q113 0 197.5 -46.5t131.5 -130.5t47 -196q0 -84 -27 -152.5t-76.5 -118t-119 -76t-153.5 -26.5zM433 160q45 0 75.5 21t46 69.5t15.5 132.5q0 59 -15 99.5t-44.5 62t-75.5 21.5
q-57 0 -93.5 -35.5t-36.5 -96.5q0 -58 33 -93.5t87 -35.5q43 0 71 20.5t38 53.5h2q0 -54 -7 -96.5t-28.5 -67.5t-66.5 -25q-40 0 -61.5 20.5t-24.5 49.5h-32q5 -49 37.5 -74.5t79.5 -25.5zM433 333q-41 0 -66.5 27t-25.5 73t25.5 74t67.5 28q43 0 69 -26.5t26 -72.5
q0 -43 -25.5 -73t-70.5 -30z" />
    <glyph glyph-name="uni2780" unicode="&#x2780;" 
d="M435 -10q-112 0 -196.5 47t-131.5 131t-47 195q0 112 47 196t131.5 130.5t196.5 46.5q113 0 197.5 -46.5t131.5 -130.5t47 -196q0 -111 -47 -195t-131.5 -131t-197.5 -47zM446 165v307h-92v26h14q41 0 58 17.5t20 46.5h34v-397h-34zM435 21q102 0 179 43t120 120t43 179
t-43 179.5t-120 120.5t-179 43q-101 0 -178 -43t-120 -120.5t-43 -179.5t43 -179t120 -120t178 -43z" />
    <glyph glyph-name="uni2781" unicode="&#x2781;" 
d="M435 -10q-112 0 -196.5 47t-131.5 131t-47 195q0 112 47 196t131.5 130.5t196.5 46.5q113 0 197.5 -46.5t131.5 -130.5t47 -196q0 -111 -47 -195t-131.5 -131t-197.5 -47zM435 21q102 0 179 43t120 120t43 179t-43 179.5t-120 120.5t-179 43q-101 0 -178 -43t-120 -120.5
t-43 -179.5t43 -179t120 -120t178 -43zM312 162v8q0 37 15 64t39 48.5t51 40t51 37t39 40.5t15 50q0 38 -24 60.5t-63 22.5q-40 0 -66 -25t-25 -66h-31q-2 55 33.5 88.5t91.5 33.5q54 0 86.5 -31.5t32.5 -80.5q0 -31 -14 -55.5t-36.5 -44.5t-47.5 -38t-48.5 -36.5
t-39.5 -39.5t-19 -48q14 2 36.5 2.5t47.5 0.5h126v-31h-250z" />
    <glyph glyph-name="uni2782" unicode="&#x2782;" 
d="M435 -10q-112 0 -196.5 47t-131.5 131t-47 195q0 112 47 196t131.5 130.5t196.5 46.5q113 0 197.5 -46.5t131.5 -130.5t47 -196q0 -111 -47 -195t-131.5 -131t-197.5 -47zM435 21q102 0 179 43t120 120t43 179t-43 179.5t-120 120.5t-179 43q-101 0 -178 -43t-120 -120.5
t-43 -179.5t43 -179t120 -120t178 -43zM435 160q-60 0 -93.5 37t-32.5 89h33q-1 -41 25 -68t67 -27q42 0 69 24t27 61q0 38 -24.5 59t-63.5 21h-39v29h38q41 0 61.5 22.5t20.5 54.5q0 35 -24.5 54.5t-62.5 19.5q-40 0 -65.5 -25t-25.5 -69h-32q-1 58 34 91.5t90 33.5
q51 0 86.5 -27t35.5 -75q0 -38 -20 -61.5t-47 -31.5v-2q35 -8 54 -34t19 -62q0 -50 -37 -82t-93 -32z" />
    <glyph glyph-name="uni2783" unicode="&#x2783;" 
d="M60 363q0 112 47 196t131.5 130.5t196.5 46.5q113 0 197.5 -46.5t131.5 -130.5t47 -196q0 -111 -47 -195t-131.5 -131t-197.5 -47q-112 0 -196.5 47t-131.5 131t-47 195zM94 363q0 -102 43 -179t120 -120t178 -43q102 0 179 43t120 120t43 179t-43 179.5t-120 120.5
t-179 43q-101 0 -178 -43t-120 -120.5t-43 -179.5zM280 269v28l187 265h48v-264h56v-29h-56v-104h-34v104h-201zM316 298h165v234z" />
    <glyph glyph-name="uni2784" unicode="&#x2784;" 
d="M435 -10q-112 0 -196.5 47t-131.5 131t-47 195q0 112 47 196t131.5 130.5t196.5 46.5q113 0 197.5 -46.5t131.5 -130.5t47 -196q0 -111 -47 -195t-131.5 -131t-197.5 -47zM435 21q102 0 179 43t120 120t43 179t-43 179.5t-120 120.5t-179 43q-101 0 -178 -43t-120 -120.5
t-43 -179.5t43 -179t120 -120t178 -43zM433 162q-57 0 -92.5 36t-34.5 90h33q0 -44 27.5 -69.5t67.5 -25.5q43 0 70.5 28.5t27.5 74.5q0 45 -27 74.5t-69 29.5q-32 0 -55 -14.5t-34 -38.5h-32l8 217h226v-30h-196l-7 -150l2 -1q14 21 38.5 34t55.5 13q54 0 90 -37.5
t36 -94.5q0 -60 -38 -98t-97 -38z" />
    <glyph glyph-name="uni2785" unicode="&#x2785;" 
d="M435 -10q-112 0 -196.5 47t-131.5 131t-47 195q0 112 47 196t131.5 130.5t196.5 46.5q113 0 197.5 -46.5t131.5 -130.5t47 -196q0 -111 -47 -195t-131.5 -131t-197.5 -47zM441 190q41 0 67 28.5t26 74.5q0 47 -25.5 73.5t-66.5 26.5q-45 0 -70.5 -30t-25.5 -74
q0 -46 26.5 -72.5t68.5 -26.5zM435 21q102 0 179 43t120 120t43 179t-43 179.5t-120 120.5t-179 43q-101 0 -178 -43t-120 -120.5t-43 -179.5t43 -179t120 -120t178 -43zM439 160q-45 0 -75 21.5t-44.5 62t-14.5 98.5q0 77 15.5 126.5t47 73.5t78.5 24q50 0 82.5 -26
t36.5 -75h-32q-4 34 -28 52t-59 18q-44 0 -67 -24.5t-31.5 -67t-9.5 -97.5h2q11 35 39.5 55t68.5 20q54 0 88 -35t34 -93q0 -62 -37 -97.5t-94 -35.5z" />
    <glyph glyph-name="uni2786" unicode="&#x2786;" 
d="M435 -10q-112 0 -196.5 47t-131.5 131t-47 195q0 112 47 196t131.5 130.5t196.5 46.5q113 0 197.5 -46.5t131.5 -130.5t47 -196q0 -111 -47 -195t-131.5 -131t-197.5 -47zM435 21q102 0 179 43t120 120t43 179t-43 179.5t-120 120.5t-179 43q-101 0 -178 -43t-120 -120.5
t-43 -179.5t43 -179t120 -120t178 -43zM396 165q0 82 18.5 146t48.5 118t63 103h-190v-85h-29v115h260v-25q-36 -52 -66 -106t-48.5 -118t-18.5 -148h-38z" />
    <glyph glyph-name="uni2787" unicode="&#x2787;" 
d="M435 -10q-112 0 -196.5 47t-131.5 131t-47 195q0 112 47 196t131.5 130.5t196.5 46.5q113 0 197.5 -46.5t131.5 -130.5t47 -196q0 -111 -47 -195t-131.5 -131t-197.5 -47zM437 190q45 0 72 22.5t27 59.5q0 33 -24.5 54.5t-74.5 21.5q-51 0 -74.5 -22.5t-23.5 -53.5
q0 -38 27 -60t71 -22zM435 21q102 0 179 43t120 120t43 179t-43 179.5t-120 120.5t-179 43q-101 0 -178 -43t-120 -120.5t-43 -179.5t43 -179t120 -120t178 -43zM437 161q-61 0 -99 29.5t-38 78.5q0 33 22 61.5t65 33.5v1q-41 7 -60.5 35t-19.5 62q0 47 35.5 75.5t94.5 28.5
q40 0 69 -13t45.5 -36.5t16.5 -55.5q0 -31 -18.5 -60.5t-62.5 -35.5v-1q44 -4 65 -32t21 -63q0 -49 -37.5 -78.5t-98.5 -29.5zM437 378q51 0 73 23.5t22 55.5q0 37 -26.5 58t-68.5 21q-43 0 -68.5 -21.5t-25.5 -57.5q0 -33 22.5 -56t71.5 -23z" />
    <glyph glyph-name="uni2788" unicode="&#x2788;" 
d="M435 -10q-112 0 -196.5 47t-131.5 131t-47 195q0 112 47 196t131.5 130.5t196.5 46.5q113 0 197.5 -46.5t131.5 -130.5t47 -196q0 -111 -47 -195t-131.5 -131t-197.5 -47zM435 21q102 0 179 43t120 120t43 179t-43 179.5t-120 120.5t-179 43q-101 0 -178 -43t-120 -120.5
t-43 -179.5t43 -179t120 -120t178 -43zM433 160q-47 0 -79.5 25.5t-37.5 74.5h32q3 -29 24.5 -49.5t61.5 -20.5q45 0 66.5 25t28.5 67.5t7 96.5h-2q-10 -33 -38 -53.5t-71 -20.5q-54 0 -87 35.5t-33 93.5q0 61 36.5 96.5t93.5 35.5q46 0 75.5 -21.5t44.5 -62t15 -99.5
q0 -84 -15.5 -132.5t-46 -69.5t-75.5 -21zM433 333q45 0 70.5 30t25.5 73q0 46 -26 72.5t-69 26.5q-42 0 -67.5 -28t-25.5 -74t25.5 -73t66.5 -27z" />
    <glyph glyph-name="G.ss01" horiz-adv-x="806" 
d="M383 -8q-76 0 -138 26.5t-106.5 76t-68.5 117.5t-24 152t25 152t71 117.5t110.5 76t143.5 26.5q81 0 146.5 -25.5t109.5 -74.5t58 -121h-40q-14 57 -50.5 98.5t-93 64t-130.5 22.5q-97 0 -166.5 -42t-106.5 -117.5t-37 -176.5q0 -76 20.5 -138t59.5 -106t93.5 -68
t123.5 -24q88 0 154 33t103.5 93.5t37.5 143.5v59l17 -17h-337v36h361v-376h-32l-5 174h-6q-17 -55 -59.5 -96t-102.5 -63.5t-131 -22.5z" />
    <glyph glyph-name="a.ss01" horiz-adv-x="534" 
d="M216 -8q-76 0 -123.5 40.5t-47.5 106.5q0 37 14 66.5t40.5 50t64.5 31t86 10.5h157v53q0 43 -15.5 74.5t-49 49.5t-87.5 18q-51 0 -87.5 -14.5t-56 -40.5t-20.5 -61h-37q5 72 61.5 111t140.5 39q42 0 76.5 -10t59.5 -31.5t38.5 -55t13.5 -79.5v-280q0 -28 9 -37.5
t25 -9.5q8 0 16.5 3t14.5 9v-32q-7 -5 -17 -8t-21 -3q-13 0 -24.5 3.5t-20 11.5t-13 21.5t-4.5 33.5v29v29l5 -17h-8q-18 -50 -70.5 -80.5t-119.5 -30.5zM224 26q86 0 134.5 44.5t48.5 110.5v84h-158q-51 0 -88.5 -13t-58 -40.5t-20.5 -69.5q0 -53 36 -84.5t106 -31.5z" />
    <glyph glyph-name="g.ss01" horiz-adv-x="561" 
d="M220 -167q-63 0 -102.5 15.5t-57.5 43.5t-18 63q0 29 14 52.5t36 39.5t47 21v3q-26 9 -39.5 28.5t-13.5 44.5q0 19 8.5 34.5t23 27.5t32.5 17v6q-31 20 -48 53t-17 76q0 49 24 87t66.5 60t97.5 22q26 0 56.5 -6.5t50.5 -18.5q13 33 38 55.5t59 33.5t74 7v-34
q-51 5 -91 -15t-58 -61q31 -26 44.5 -61.5t13.5 -70.5q0 -48 -23.5 -85t-65 -58t-96.5 -21q-23 0 -41 2.5t-32.5 6.5t-26.5 9q-28 -3 -43 -21.5t-15 -40.5q0 -31 26.5 -43.5t58.5 -12.5h162q45 0 78.5 -12t52 -38t18.5 -68q0 -48 -22 -79t-62 -46.5t-94 -15.5h-115z
M213 -136h133q68 0 98.5 28.5t30.5 74.5q0 38 -17 57.5t-44.5 26t-59.5 6.5h-190q-38 -9 -63 -32t-25 -63q0 -33 16 -54.5t47 -32.5t74 -11zM275 224q71 0 110 37t39 95q0 43 -19 74t-52.5 48t-79.5 17q-48 0 -82 -18t-52 -49t-18 -71q0 -64 42 -98.5t112 -34.5z" />
    <glyph glyph-name="zero.tf" horiz-adv-x="600" 
d="M302 -10q-54 0 -99 23.5t-78 70t-50.5 115.5t-17.5 161q0 122 30.5 204t85.5 123.5t128 41.5q54 0 98 -23.5t76.5 -69.5t50 -115t17.5 -161q0 -121 -30.5 -203.5t-84.5 -124.5t-126 -42zM301 24q49 0 87 22.5t64 66t39.5 106t13.5 141.5t-13.5 141t-39.5 105.5t-64 66
t-87 22.5q-50 0 -88 -22.5t-64 -65.5t-39.5 -105t-13.5 -142q0 -79 13.5 -141.5t39.5 -106t64 -66t88 -22.5zM81 188v36l439 307v-37z" />
    <glyph glyph-name="one.tf" horiz-adv-x="600" 
d="M63 0v34h231v515h-183v29h35q55 0 85.5 21.5t44 54.5t16.5 67h39v-687h207v-34h-475z" />
    <glyph glyph-name="two.tf" horiz-adv-x="600" 
d="M79 0v13q0 55 21.5 98t56.5 78t77 65.5t84 59.5t77 61t56.5 69.5t21.5 84.5q0 51 -22 88.5t-61.5 58t-92.5 20.5q-56 0 -98.5 -22.5t-65.5 -63t-21 -95.5h-32q-2 64 25.5 112.5t78 75.5t116.5 27q64 0 111.5 -25.5t73.5 -70.5t26 -102q0 -50 -21 -90t-55.5 -74
t-75.5 -64.5t-83 -60t-77 -61t-57 -68t-24 -81.5l404 1v-34h-443z" />
    <glyph glyph-name="three.tf" horiz-adv-x="600" 
d="M296 -8q-70 0 -120.5 30.5t-76.5 82.5t-24 115h35q-2 -57 21.5 -101t66 -68.5t97.5 -24.5q56 0 99 21.5t67.5 60t24.5 88.5q0 38 -12.5 68t-35.5 51t-55.5 32t-73.5 11h-65v33h67q54 0 90 20.5t54.5 56t18.5 78.5q0 47 -22.5 80.5t-62 51.5t-90.5 18q-54 0 -95.5 -23
t-65 -66t-23.5 -103h-33q-2 69 26 119.5t78 78.5t113 28q45 0 84.5 -12.5t68.5 -36t45.5 -57.5t16.5 -77t-15.5 -77.5t-44 -58t-66.5 -34.5v-4q44 -10 74.5 -34.5t47 -60.5t16.5 -83q0 -59 -30 -105t-81.5 -72t-118.5 -26z" />
    <glyph glyph-name="four.tf" horiz-adv-x="600" 
d="M418 0v196h-377v34l352 491h62v-492h105v-33h-105v-196h-37zM81 229h337v471z" />
    <glyph glyph-name="five.tf" horiz-adv-x="600" 
d="M293 -8q-65 0 -116 28.5t-80 80t-28 119.5h35q-2 -57 22 -101t67.5 -68.5t100.5 -24.5q58 0 102.5 26t69.5 72.5t25 108.5q0 61 -24.5 108t-68 73.5t-100.5 26.5q-64 0 -110.5 -28.5t-68.5 -74.5h-34l14 383h402v-33h-369l-14 -308l3 -1q26 43 74 69t109 26
q48 0 89.5 -17.5t72.5 -49.5t48.5 -75.5t17.5 -96.5q0 -71 -31 -126t-85 -86t-123 -31z" />
    <glyph glyph-name="six.tf" horiz-adv-x="600" 
d="M303 -8q-62 0 -107 22t-73.5 64.5t-42.5 102t-14 134.5q0 109 15 187.5t45.5 129t77.5 74.5t111 24q62 0 107 -21.5t71.5 -61.5t30.5 -95h-34q-5 47 -28.5 79t-61 48.5t-85.5 16.5q-68 0 -109.5 -29t-63.5 -81t-30.5 -122t-10.5 -153h3q11 46 39.5 80.5t72 53.5t97.5 19
q66 0 115.5 -29t77.5 -82t28 -124q0 -73 -29.5 -126t-81.5 -82t-120 -29zM305 26q57 0 99 25.5t65.5 71.5t23.5 108t-23.5 107t-65 69t-97.5 24q-60 0 -103.5 -28t-66.5 -75t-23 -105q0 -61 24 -105.5t67 -68t100 -23.5z" />
    <glyph glyph-name="seven.tf" horiz-adv-x="600" 
d="M235 0q0 114 20.5 209t55.5 176.5t80 155.5t94 147h-382v-164h-33v197h460v-25q-50 -73 -95.5 -147.5t-81.5 -156.5t-57 -178.5t-21 -213.5h-40z" />
    <glyph glyph-name="eight.tf" horiz-adv-x="600" 
d="M301 -8q-55 0 -99.5 13.5t-77 39.5t-50 61.5t-17.5 78.5q0 42 18.5 80t56 64t93.5 32v2q-54 7 -88.5 33t-51 64t-16.5 81q0 58 29 100t81 65t122 23t122.5 -23.5t82 -66t29.5 -100.5q0 -42 -16.5 -80t-51 -64t-89.5 -32v-2q56 -4 93 -28.5t55 -62.5t18 -83
q0 -58 -30.5 -102t-85 -68.5t-127.5 -24.5zM301 26q62 0 107.5 20.5t70 58t24.5 86.5q0 44 -21.5 78t-66 54t-114.5 20q-71 0 -115.5 -21.5t-65 -56t-20.5 -74.5q0 -39 14.5 -69.5t41 -52t63.5 -32.5t82 -11zM301 380q71 0 113.5 22t61.5 57.5t19 77.5q0 50 -24.5 85.5
t-68 54.5t-101.5 19q-60 0 -103 -19.5t-66 -55t-23 -84.5q0 -44 19.5 -79.5t62 -56.5t110.5 -21z" />
    <glyph glyph-name="nine.tf" horiz-adv-x="600" 
d="M295 -8q-59 0 -103.5 22t-71 61.5t-31.5 94.5h34q4 -44 26 -76.5t59.5 -50t87.5 -17.5q67 0 107 28t60.5 79.5t27.5 122t8 155.5h-3q-17 -67 -71.5 -109.5t-138.5 -42.5q-65 0 -114.5 29t-77.5 82t-28 123q0 73 29.5 126t82 82t119.5 29q62 0 107 -22.5t74 -64.5
t42.5 -102.5t13.5 -136.5q0 -119 -15 -198.5t-45.5 -126.5t-75 -67t-103.5 -20zM292 292q61 0 104.5 27.5t66.5 75t23 105.5q0 61 -24 104.5t-67 67.5t-101 24q-56 0 -98.5 -25.5t-66 -71.5t-23.5 -108t23.5 -106.5t65.5 -68.5t97 -24z" />
    <glyph glyph-name="zero.tf.ss03" horiz-adv-x="600" 
d="M302 -10q-54 0 -99 23.5t-78 70t-50.5 115.5t-17.5 161q0 122 30.5 204t85.5 123.5t128 41.5q54 0 98 -23.5t76.5 -69.5t50 -115t17.5 -161q0 -121 -30.5 -203.5t-84.5 -124.5t-126 -42zM301 24q49 0 87 22.5t64 66t39.5 106t13.5 141.5t-13.5 141t-39.5 105.5t-64 66
t-87 22.5q-50 0 -88 -22.5t-64 -65.5t-39.5 -105t-13.5 -142q0 -79 13.5 -141.5t39.5 -106t64 -66t88 -22.5zM75 343v33h451v-33h-451z" />
    <glyph glyph-name="zero.dnom" horiz-adv-x="341" 
d="M172 -5q-41 0 -72.5 23t-48.5 68.5t-17 111.5q0 67 17 112t48.5 68t72.5 23t71.5 -23t47.5 -68t17 -112q0 -66 -17 -111.5t-47.5 -68.5t-71.5 -23zM172 23q33 0 56 20t35 59t12 96t-12 96t-35 59t-56 20t-56.5 -20t-36 -59t-12.5 -96q0 -43 7 -75.5t20.5 -54.5t33 -33.5
t44.5 -11.5z" />
    <glyph glyph-name="one.dnom" horiz-adv-x="199" 
d="M101 0v308h-92v25h14q41 0 58 17.5t20 46.5h32v-397h-32z" />
    <glyph glyph-name="two.dnom" horiz-adv-x="317" 
d="M35 0v8q0 36 15.5 63.5t39.5 48.5t51 39.5t51 37.5t39.5 41t15.5 51q0 38 -24 61t-65 23q-45 0 -69 -26.5t-23 -66.5h-30q-2 55 33.5 88.5t91.5 33.5q54 0 87 -31.5t33 -79.5q0 -31 -14.5 -55.5t-37 -44.5t-48.5 -38.5t-49.5 -37t-39.5 -40t-19 -48.5q16 1 41 1.5t44 0.5
h128v-29h-251z" />
    <glyph glyph-name="three.dnom" horiz-adv-x="320" 
d="M155 -5q-58 0 -92.5 36.5t-33.5 89.5h31q-1 -43 26 -70t69 -27q43 0 70 24.5t27 61.5q0 26 -11 44t-31 28t-48 10h-38v27h38q41 0 62 22.5t21 55.5q0 35 -25 55.5t-63 20.5q-41 0 -67.5 -26t-26.5 -70h-30q-1 40 16 68t45.5 42.5t62.5 14.5q26 0 48.5 -7t39 -20.5
t25.5 -32t9 -42.5q0 -34 -17.5 -58.5t-49.5 -34.5v-2q38 -9 56 -35.5t18 -61.5q0 -33 -17 -58.5t-46.5 -40t-67.5 -14.5z" />
    <glyph glyph-name="four.dnom" horiz-adv-x="312" 
d="M212 0v104h-203v27l188 266h48v-265h56v-28h-56v-104h-33zM43 132h169v238z" />
    <glyph glyph-name="five.dnom" horiz-adv-x="330" 
d="M162 -5q-58 0 -93 36.5t-34 89.5h32q-1 -43 26 -69.5t70 -26.5q44 0 72 29t28 75t-27 75.5t-71 29.5q-33 0 -56.5 -15t-34.5 -38h-30l8 216h226v-29h-197l-7 -152l2 -1q14 22 39 34.5t56 12.5q36 0 64.5 -17t45 -46.5t16.5 -68.5t-17.5 -69.5t-47.5 -48t-70 -17.5z" />
    <glyph glyph-name="six.dnom" horiz-adv-x="329" 
d="M169 -4q-46 0 -76 21t-44.5 61.5t-14.5 97.5q0 78 15.5 128t47 74t78.5 24q52 0 83.5 -27t35.5 -73h-30q-4 34 -28.5 52.5t-60.5 18.5q-44 0 -67.5 -24.5t-32 -68t-9.5 -100.5h2q9 35 38 56t71 21q37 0 64 -16t42.5 -45.5t15.5 -68.5q0 -40 -16.5 -69.5t-46 -45.5
t-67.5 -16zM170 25q43 0 69 28.5t26 74.5q0 47 -26 74.5t-68 27.5q-46 0 -72 -30.5t-26 -74.5q0 -47 27 -73.5t70 -26.5z" />
    <glyph glyph-name="seven.dnom" horiz-adv-x="279" 
d="M99 0q0 83 18.5 147t48.5 117.5t64 103.5h-194v-86h-27v115h260v-23q-27 -39 -51 -78.5t-43 -83.5t-30 -96t-11 -116h-35z" />
    <glyph glyph-name="eight.dnom" horiz-adv-x="335" 
d="M168 -4q-41 0 -72 13t-48 37.5t-17 56.5q0 34 22.5 62.5t65.5 33.5v1q-40 6 -60.5 33t-20.5 63q0 32 16 55.5t45.5 36.5t68.5 13q40 0 69 -13t45.5 -37t16.5 -56q0 -34 -19.5 -61.5t-62.5 -33.5v-1q44 -4 66 -31t22 -64q0 -49 -37.5 -78.5t-99.5 -29.5zM168 25
q47 0 74.5 22.5t27.5 60.5q0 33 -24.5 55t-77.5 22t-77 -23.5t-24 -53.5q0 -26 12.5 -44.5t35.5 -28.5t53 -10zM168 214q53 0 75 23.5t22 55.5q0 38 -26.5 59t-70.5 21t-70 -21.5t-26 -58.5q0 -34 23 -56.5t73 -22.5z" />
    <glyph glyph-name="nine.dnom" horiz-adv-x="330" 
d="M160 -4q-49 0 -81 26t-37 73h31q3 -30 25.5 -50.5t62.5 -20.5q44 0 66 24.5t30 68t8 100.5h-3q-9 -34 -37.5 -55t-72.5 -21q-53 0 -87 35.5t-34 93.5q0 61 36.5 96.5t94.5 35.5q46 0 75.5 -22t44 -62.5t14.5 -98.5q0 -84 -15.5 -132.5t-45.5 -69.5t-75 -21zM159 167
q46 0 72 30.5t26 75.5q0 31 -12 53t-33.5 34.5t-51.5 12.5q-43 0 -69 -28.5t-26 -75.5t26 -74.5t68 -27.5z" />
    <glyph glyph-name="zero.numr" horiz-adv-x="341" 
d="M172 319q-41 0 -72.5 23.5t-48.5 68.5t-17 111q0 67 17 112t48.5 68t72.5 23t71.5 -23t47.5 -68t17 -112q0 -66 -17 -111t-47.5 -68.5t-71.5 -23.5zM172 347q33 0 56 20t35 59t12 96t-12 96t-35 59t-56 20t-56.5 -20t-36 -59t-12.5 -96q0 -43 7 -75.5t20.5 -54.5
t33 -33.5t44.5 -11.5z" />
    <glyph glyph-name="one.numr" horiz-adv-x="199" 
d="M101 324v308h-92v25h14q41 0 58 17.5t20 46.5h32v-397h-32z" />
    <glyph glyph-name="two.numr" horiz-adv-x="317" 
d="M35 324v8q0 36 15.5 63.5t39.5 48.5t51 39.5t51 37.5t39.5 41t15.5 51q0 38 -24 61t-65 23q-45 0 -69 -26.5t-23 -66.5h-30q-2 55 33.5 88.5t91.5 33.5q54 0 87 -31.5t33 -79.5q0 -31 -14.5 -55.5t-37 -44.5t-48.5 -38.5t-49.5 -37t-39.5 -40t-19 -48.5q16 1 41 1.5
t44 0.5h128v-29h-251z" />
    <glyph glyph-name="three.numr" horiz-adv-x="320" 
d="M155 319q-58 0 -92.5 36.5t-33.5 89.5h31q-1 -43 26 -70t69 -27q43 0 70 24.5t27 61.5q0 26 -11 44t-31 28t-48 10h-38v27h38q41 0 62 22.5t21 55.5q0 35 -25 55.5t-63 20.5q-41 0 -67.5 -26t-26.5 -70h-30q-1 40 16 68t45.5 42.5t62.5 14.5q26 0 48.5 -7t39 -20.5
t25.5 -32t9 -42.5q0 -34 -17.5 -58.5t-49.5 -34.5v-2q38 -9 56 -35.5t18 -61.5q0 -33 -17 -58.5t-46.5 -40t-67.5 -14.5z" />
    <glyph glyph-name="four.numr" horiz-adv-x="312" 
d="M212 324v104h-203v27l188 266h48v-265h56v-28h-56v-104h-33zM43 456h169v238z" />
    <glyph glyph-name="five.numr" horiz-adv-x="330" 
d="M162 319q-58 0 -93 36.5t-34 89.5h32q-1 -43 26 -69.5t70 -26.5q44 0 72 29t28 75t-27 75.5t-71 29.5q-33 0 -56.5 -15t-34.5 -38h-30l8 216h226v-29h-197l-7 -152l2 -1q14 22 39 34.5t56 12.5q36 0 64.5 -17t45 -46.5t16.5 -68.5t-17.5 -69.5t-47.5 -48t-70 -17.5z" />
    <glyph glyph-name="six.numr" horiz-adv-x="329" 
d="M169 320q-46 0 -76 21.5t-44.5 61.5t-14.5 97q0 78 15.5 128t47 74t78.5 24q52 0 83.5 -27t35.5 -73h-30q-4 34 -28.5 52.5t-60.5 18.5q-44 0 -67.5 -24.5t-32 -68t-9.5 -100.5h2q9 35 38 56t71 21q37 0 64 -16.5t42.5 -45.5t15.5 -68q0 -40 -16.5 -69.5t-46 -45.5
t-67.5 -16zM170 349q43 0 69 28.5t26 74.5q0 47 -26 74.5t-68 27.5q-46 0 -72 -30.5t-26 -74.5q0 -47 27 -73.5t70 -26.5z" />
    <glyph glyph-name="seven.numr" horiz-adv-x="279" 
d="M99 324q0 83 18.5 147t48.5 117.5t64 103.5h-194v-86h-27v115h260v-23q-27 -39 -51 -78.5t-43 -83.5t-30 -96t-11 -116h-35z" />
    <glyph glyph-name="eight.numr" horiz-adv-x="335" 
d="M168 320q-41 0 -72 13t-48 37.5t-17 56.5q0 34 22.5 62.5t65.5 33.5v1q-40 6 -60.5 33t-20.5 63q0 32 16 55.5t45.5 36.5t68.5 13q40 0 69 -13t45.5 -37t16.5 -56q0 -34 -19.5 -61.5t-62.5 -33.5v-1q44 -4 66 -31t22 -64q0 -49 -37.5 -78.5t-99.5 -29.5zM168 349
q47 0 74.5 22.5t27.5 60.5q0 33 -24.5 55t-77.5 22t-77 -23.5t-24 -53.5q0 -26 12.5 -44.5t35.5 -28.5t53 -10zM168 538q53 0 75 23.5t22 55.5q0 38 -26.5 59t-70.5 21t-70 -21.5t-26 -58.5q0 -34 23 -56.5t73 -22.5z" />
    <glyph glyph-name="nine.numr" horiz-adv-x="330" 
d="M160 320q-49 0 -81 26t-37 73h31q3 -30 25.5 -50.5t62.5 -20.5q44 0 66 24.5t30 68t8 100.5h-3q-9 -34 -37.5 -55t-72.5 -21q-53 0 -87 35.5t-34 93.5q0 61 36.5 96.5t94.5 35.5q46 0 75.5 -22t44 -62.5t14.5 -98.5q0 -84 -15.5 -132.5t-45.5 -69.5t-75 -21zM159 491
q46 0 72 30.5t26 75.5q0 31 -12 53t-33.5 34.5t-51.5 12.5q-43 0 -69 -28.5t-26 -75.5t26 -74.5t68 -27.5z" />
    <glyph glyph-name="parenleft.case" horiz-adv-x="288" 
d="M221 -63q-52 48 -89 116t-56.5 148.5t-19.5 163.5q0 84 19.5 164t56.5 148t89 116h37q-39 -36 -70 -83.5t-52 -104t-32 -117.5t-11 -123q0 -88 21 -169.5t58 -147.5t86 -111h-37z" />
    <glyph glyph-name="parenright.case" horiz-adv-x="288" 
d="M30 -63q37 33 67 79t52 102t34 118.5t12 128.5q0 83 -19.5 163.5t-56 149t-89.5 115.5h37q53 -48 89.5 -116t56 -148t19.5 -164q0 -83 -19.5 -163.5t-56 -148.5t-89.5 -116h-37z" />
    <glyph glyph-name="braceleft.case" horiz-adv-x="347" 
d="M175 -63q-21 0 -31 12t-10 31v282q0 41 -20 63t-43 22h-31v37h31q23 0 43 22t20 64v280q0 19 10 31t31 12h162v-32h-167v-291q0 -46 -22 -73.5t-48 -28.5v-4q28 -1 49 -29.5t21 -72.5v-293h167v-32h-162z" />
    <glyph glyph-name="braceright.case" horiz-adv-x="347" 
d="M10 -63v32h167v293q0 44 21 72.5t49 29.5v4q-26 1 -48 28.5t-22 73.5v291h-167v32h162q21 0 31 -12t10 -31v-280q0 -42 20 -64t43 -22h31v-37h-31q-23 0 -43 -22t-20 -63v-282q0 -19 -10 -31t-31 -12h-162z" />
    <glyph glyph-name="bracketleft.case" horiz-adv-x="316" 
d="M103 -63v856h203v-32h-167v-792h167v-32h-203z" />
    <glyph glyph-name="bracketright.case" horiz-adv-x="316" 
d="M10 -63v32h167v792h-167v32h203v-856h-203z" />
    <glyph glyph-name="M.BRACKET.300" horiz-adv-x="898" 
d="M103 0v729h62l282 -679h2l284 679h62v-729h-39v420l3 266h-7l-285 -686h-36l-286 686h-6l2 -266v-420h-38z" />
    <glyph glyph-name="a.ss01.BRACKET.300" horiz-adv-x="519" 
d="M211 -8q-76 0 -123.5 41.5t-47.5 108.5q0 38 14 68t40.5 50.5t64.5 31.5t86 11h157v44q0 44 -15.5 76.5t-49 50.5t-87.5 18q-51 0 -87.5 -15t-56 -41.5t-20.5 -62.5h-37q5 74 61.5 113.5t140.5 39.5q42 0 76.5 -10.5t59.5 -32t38.5 -55.5t13.5 -81v-242q0 -25 1 -47.5
t3.5 -38t4.5 -19.5h-36q-4 11 -6 42t-2 70l5 -7h-8q-18 -51 -70 -82t-120 -31zM219 26q86 0 134.5 45.5t48.5 112.5v88l11 -11h-169q-51 0 -88.5 -12.5t-58 -38t-20.5 -65.5q0 -55 36 -87t106 -32z" />
    <glyph glyph-name="cent.BRACKET.500" horiz-adv-x="551" 
d="M287 -8q-54 0 -98.5 19t-76.5 54t-49 83.5t-17 108.5q0 80 30 140t85 94t129 34q57 0 102.5 -21.5t74.5 -60t35 -89.5h-36q-8 44 -33 74t-62.5 46t-82.5 16q-63 0 -109 -29.5t-71 -82t-25 -121.5q0 -71 25.5 -122.5t71.5 -79.5t107 -28q50 0 89 18t63 51.5t29 77.5h37
q-6 -55 -35 -96t-76 -63.5t-107 -22.5zM261 -85v95h30v-95h-30zM261 508v94h30v-94h-30z" />
    <glyph glyph-name="dollar.BRACKET.500" horiz-adv-x="624" 
d="M316 -8q-90 0 -147 30t-84.5 83t-29.5 120h41q2 -61 25.5 -106t71.5 -69t121 -24q96 0 155.5 38.5t59.5 118.5q0 41 -11.5 69.5t-37 48.5t-66.5 34t-100 25q-60 12 -105 26t-75.5 34.5t-46 52t-15.5 77.5q0 56 28 98t80.5 65.5t126.5 23.5q78 0 130 -26t79.5 -72.5
t28.5 -109.5h-40q-2 56 -26.5 95t-68.5 59t-107 20q-60 0 -102.5 -18.5t-65 -51.5t-22.5 -78q0 -52 21.5 -80.5t69 -45.5t125.5 -32q50 -9 93 -22t76.5 -35.5t52 -59.5t18.5 -95t-29.5 -101.5t-86 -67.5t-137.5 -24zM296 -85v92h32v-92h-32zM296 719v95h32v-95h-32z" />
    <glyph glyph-name="e.BRACKET.300" horiz-adv-x="548" 
d="M282 -8q-72 0 -125 33t-82.5 93t-29.5 140t28 140t81 93.5t126 33.5q79 0 130.5 -36t74.5 -96.5t16 -136.5h-419q2 -72 27 -123t69.5 -78t103.5 -27q71 0 119 33.5t61 90.5h38q-8 -48 -38.5 -84t-77 -56t-102.5 -20zM83 284l-5 15h393l-5 -18q2 75 -23 121t-68 66.5
t-96 20.5q-57 0 -100 -24.5t-67.5 -70.5t-28.5 -110z" />
    <glyph glyph-name="f.BRACKET.200" horiz-adv-x="324" 
d="M135 0v485h-108v32h108v110q0 52 29 77t75 25h73v-39h-70q-42 0 -56 -20.5t-14 -54.5v-98h127v-32h-127v-485h-37z" />
    <glyph glyph-name="s.BRACKET.300" horiz-adv-x="508" 
d="M257 -10q-97 0 -149 47t-52 123h37q0 -70 45.5 -103.5t119.5 -33.5t114 28.5t40 80.5q0 38 -16 60t-49.5 34t-87.5 20q-46 7 -81 16.5t-59 25t-36 39.5t-12 58q0 43 23 74.5t64 49.5t96 18q60 0 101.5 -19.5t63 -55t21.5 -85.5h-36q-1 46 -20 73.5t-52 40.5t-77 13
q-70 0 -108.5 -29t-38.5 -76q0 -34 17 -55.5t52 -33t88 -19.5q41 -6 74.5 -15t58.5 -25t38.5 -41.5t13.5 -64.5q0 -70 -53 -107.5t-140 -37.5z" />
    <glyph glyph-name="w.BRACKET.300" horiz-adv-x="676" 
d="M154 0l-146 517h36l136 -480h2l133 480h45l139 -479h2l131 479h36l-145 -517h-48l-137 471h-3l-131 -471h-50z" />
    </font>
</defs>
</svg>
